За последнюю неделю опубликовано 51 новых материалов.
Инструкция новичку Путеводитель по форуму Прокси для Telegram Показать подсказки , это бомба!

Скачать Звонок мертвецу / Abgeschnitten (2018) BDRemux 1080p от селезень | iTunes бесплатно через торрент

  • Поучаствуй (в качестве покупателя) в любых пяти совместных покупках (кроме завершённых и "Моментальных") и получи группу "Новичок" навсегда -> ссылка на раздел
  • Получай до 480 рублей за каждого приглашенного пользователя!
    представляем Вам очередное расширение партнерской программы, подробности описаны тут -> ссылка
  • 90% материалов доступно к скачиванию после простой регистрации!
    Если же ты хочешь скачивать материалы без требования оставлять отзывы то получи группу "Новичок", 10 способов повышения описаны тут -> ссылка
  • К сожалению количество битых ссылок растет и мы уже не можем их оперативно восстанавливать поэтому просим помощи у каждого нашего пользователя.
    С сегодняшнего дня, за каждую восстановленную ссылку мы заплатим Вам.
    Подробнее тут -> ссылка
  • Перенесем твои заслуги с другого ресурса!
    Мы понимаем как сложно прокачивать аккаунты на форумах, вроде раскачал аккаунт, а тут появляется ресурс в 100 раз круче но тоже с системой прокачки и снова качать аккаунт...
    Предлагаем вам перенести Ваши заслуги на другом подобном ресурсе к нам.
    Подробности описаны тут -> ссылка
  • Вы можете получать по 2.5% с каждой покупки и продажи на маркете! Подробности в теме Партнёрская программа
Если Вы не хотите скачивать, Вы всегда можетепосмотретьонлайн, просто нажмите кнопку ниже :

Открыть плеер

Torrent_Bot

Торрент-Бот
Бот форума
4 Окт 2016
91
164
20


Информация о фильме
Название: Звонок мертвецу
Оригинальное название: Abgeschnitten
Год выхода: 2018
Жанр: Ужасы, боевик, триллер, криминал, детектив
Режиссер: Кристиан Альварт
В ролях: Мориц Бляйбтрой, Ясна Фритци Бауэр, Ларс Айдингер, Фахри Огюн Ярдим, Энно Хессе, Кристиан Кухенбух, Урс Юккер, Барбара Пракопенка, Джой Мария Бэй, Ян Бюлов



О фильме: Судмедэксперт Пауль Херцфельд обнаруживает в голове чудовищно изуродованного трупа записку, на которой — телефонный номер с указанием: позвони и узнаешь судьбу своей похищенной дочери. На острове Хельголанд, отрезанном от суши страшным ураганом, Пауля поджидает еще один мертвец, а внутри — дальнейшие указания. И это только начало цепочки смертей… Психопат-похититель не прочь поиграть с жертвами в кошки-мышки. Тот, кто разгадает головоломку из тел, имеет шансы остаться в живых.

Страна: Германия
Студия: Regina Ziegler Filmproduktion, Syrreal Entertainment, Warner Bros.
Продолжительность: 02:11:43
Перевод: Дублированный | iTunes

Качество: BDRemux 1080p
Видео: MPEG-4 AVC, 1920x1080, 34.9 Mbit/s, 23.976 fps
Звук:
Аудио #01: 48 kHz, AC3, 5.1, 384 Kbps | iTunes | RUS |
Аудио #02: 48 kHz, DTS-HD MA, 5.1, 3782 Kbps | Оригинал | GER |



MI
General
Unique ID : 195304272873590892232310267720446544434 (0x92EE3C17E1A894AEEBC2046CAC9C8A32)
Complete name : D:Video111Abgeschnitten.2018.BDREMUX.1080p.seleZen.mkv
Format : Matroska
Format version : Version 4
File size : 35.9 GiB
Duration : 2 h 11 min
Overall bit rate mode : Variable
Overall bit rate : 39.1 Mb/s
Movie name : Abgeschnitten 2018 from селезень
Encoded date : UTC 2019-05-30 15:18:25
Writing application : mkvmerge v33.1.0 ('Primrose') 64-bit
Writing library : libebml v1.3.7 + libmatroska v1.5.0

Video
ID : 1
Format : AVC
Format/Info : Advanced Video Codec
Format profile : [email protected]
Format settings : CABAC / 3 Ref Frames
Format settings, CABAC : Yes
Format settings, Reference : 3 frames
Codec ID : V_MPEG4/ISO/AVC
Duration : 2 h 11 min
Bit rate mode : Variable
Bit rate : 34.9 Mb/s
Maximum bit rate : 37.0 Mb/s
Width : 1 920 pixels
Height : 1 080 pixels
Display aspect ratio : 16:9
Frame rate mode : Constant
Frame rate : 23.976 (24000/1001) FPS
Color space : YUV
Chroma subsampling : 4:2:0
Bit depth : 8 bits
Scan type : Progressive
Bits/(Pixel*Frame) : 0.702
Stream size : 32.1 GiB (89%)
Language : German
Default : Yes
Forced : No

Audio #1
ID : 2
Format : AC-3
Format/Info : Audio Coding 3
Commercial name : Dolby Digital
Codec ID : A_AC3
Duration : 2 h 11 min
Bit rate mode : Constant
Bit rate : 384 kb/s
Channel(s) : 6 channels
Channel layout : L R C LFE Ls Rs
Sampling rate : 48.0 kHz
Frame rate : 31.250 FPS (1536 SPF)
Bit depth : 16 bits
Compression mode : Lossy
Stream size : 362 MiB (1%)
Title : iTunes
Language : Russian
Service kind : Complete Main
Default : Yes
Forced : Yes

Audio #2
ID : 3
Format : DTS XLL
Format/Info : Digital Theater Systems
Commercial name : DTS-HD Master Audio
Codec ID : A_DTS
Duration : 2 h 11 min
Bit rate mode : Variable
Bit rate : 3 782 kb/s
Channel(s) : 6 channels
Channel layout : C L R Ls Rs LFE
Sampling rate : 48.0 kHz
Frame rate : 93.750 FPS (512 SPF)
Bit depth : 24 bits
Compression mode : Lossless
Stream size : 3.48 GiB (10%)
Title : Original
Language : German
Default : No
Forced : No

Menu
00:00:00.000 : de:Глава 01
00:10:48.857 : de:Глава 02
00:23:43.922 : de:Глава 03
00:30:49.306 : de:Глава 04
00:42:14.282 : de:Глава 05
00:56:23.505 : de:Глава 06
01:06:20.560 : de:Глава 07
01:14:25.836 : de:Глава 08
01:27:30.370 : de:Глава 09
01:39:20.997 : de:Глава 10
01:49:11.044 : de:Глава 11
02:02:21.918 : de:Глава 12
eac3to Log
eac3to v3.34
command line: eac3to F:DownloadsAbgeschnitten.2018.GERMAN.COMPLETE.BLURAY-CONFiDENCiAL 1) -demux
------------------------------------------------------------------------------
M2TS, 1 video track, 2 audio tracks, 1 subtitle track, 2:11:44, 24p /1.001
1: Chapters, 12 chapters
2: h264/AVC, 1080p24 /1.001 (16:9)
3: DTS Master Audio, German, 5.1 channels, 24 bits, 48kHz
(core: DTS, 5.1 channels, 1509kbps, 48kHz)
4: AC3, German, 2.0 channels, 192kbps, 48kHz
5: Subtitle (PGS), German
Creating file "00001 - Chapters.txt"...
[s05] Extracting subtitle track number 5...
[v02] Extracting video track number 2...
[a03] Extracting audio track number 3...
[a04] Extracting audio track number 4...
[v02] Creating file "00001 - 2 - h264, 1080p24.h264"...
[a03] Creating file "00001 - 3 - DTS Master Audio, German, 5.1 channels, 24 bits, 48kHz.dtsma"...
[a04] Creating file "00001 - 4 - AC3, German, 2.0 channels, 192kbps, 48kHz.ac3"...
[s05] Creating file "00001 - 5 - Subtitle (PGS), German.sup"...
Video track 2 contains 189500 frames.
Subtitle track 5 contains 1626 captions.
eac3to processing took 6 minutes, 43 seconds.
Done.

Релиз:

 

Вложения

  • 45,9 KB Просмотры: 1
    Личеров 0
    Сидеров 0
    Файлов 1
    Объем 35,9 GB

Привет!

Мы группа людей которые решили помочь другим в решении их проблем, а так же пользователям с поиском самых свежих и качественных инфопродуктов. За 4 с небольшим месяца мы создали этот форум на который заходят ежедневно тысячи человек и посещаемость постоянно растёт. Мы создали панель лицензирования для защиты PHP скриптов от воровства и SEO панель для мониторинга наших сайтов и выбора верной стратегии их развития. Мы надеемся что то что мы создали пригодится Вам и возможно Вы поможете нам развиваться и совершенствоваться вместе с Вами.

Статистика форума

Темы
410.572
Сообщения
469.128
Пользователи
86.229
Новый пользователь
bie

Приложения форума для iOS и Android


У ркн там нет власти ;)
Приватные разговоры
Помощь Пользователи
    Вы не присоединились ни к одной комнате.