За последнюю неделю опубликовано 34 новых материалов.
Инструкция новичку Путеводитель по форуму Прокси для Telegram Показать подсказки , это бомба!

Скачать Звездный отряд: Война на Марсе / Crimson Force (2005) WEB-DLRip 1080p | P бесплатно через торрент

  • Поучаствуй (в качестве покупателя) в любых пяти совместных покупках (кроме завершённых и "Моментальных") и получи группу "Новичок" навсегда -> ссылка на раздел
  • Получай до 480 рублей за каждого приглашенного пользователя!
    представляем Вам очередное расширение партнерской программы, подробности описаны тут -> ссылка
  • 90% материалов доступно к скачиванию после простой регистрации!
    Если же ты хочешь скачивать материалы без требования оставлять отзывы то получи группу "Новичок", 10 способов повышения описаны тут -> ссылка
  • К сожалению количество битых ссылок растет и мы уже не можем их оперативно восстанавливать поэтому просим помощи у каждого нашего пользователя.
    С сегодняшнего дня, за каждую восстановленную ссылку мы заплатим Вам.
    Подробнее тут -> ссылка
  • Перенесем твои заслуги с другого ресурса!
    Мы понимаем как сложно прокачивать аккаунты на форумах, вроде раскачал аккаунт, а тут появляется ресурс в 100 раз круче но тоже с системой прокачки и снова качать аккаунт...
    Предлагаем вам перенести Ваши заслуги на другом подобном ресурсе к нам.
    Подробности описаны тут -> ссылка
  • Вы можете получать по 2.5% с каждой покупки и продажи на маркете! Подробности в теме Партнёрская программа
Если Вы не хотите скачивать, Вы всегда можетепосмотретьонлайн, просто нажмите кнопку ниже :

Открыть плеер

Torrent_Bot

Торрент-Бот
Бот форума
4 Окт 2016
93
160
20
Информация о фильме
Название: Звездный отряд: Война на Марсе
Оригинальное название: Crimson Force
Год выхода: 2005
Жанр: Фантастика
Режиссер: Дэвид Флорес
В ролях: Тони Амендола, Тейлор Мак Боуйер, Дэвид Чокачи, Джефф Фэйи, Джефф Гимбл, Ричард Гнолфо, С. Томас Хауэлл, Тераса Ливингстоун, Джефф Рэнк, Джулия Роуз

О фильме:
Земная экспедиция, прибывшая на Марс с целью поиска полезных ископаемых, обнаруживает, что на планете полыхает гражданская война.



Страна: США
Студия: Brainstorm Media, Unified Film Organization LLC (UFO)
Продолжительность: 01:31:11
Перевод: Профессиональный многоголосый
Файл
Кодек: AVC
Качество: WEB-DLRip 1080p
Видео: MPEG-4 AVC, 1920x1080, 7500 Кбит/с, 23.976 кадр/с
Аудио #1: Русский ( АС3, 2ch, 224 Кбит/с, 48.0 KHz) Профессиональный (многоголосый, закадровый)
Аудио #2: Английский ( АС3, 2ch, 224 Кбит/с, 48.0 KHz)
Субтитры: английские
MediaInfo
Источник: Crimson.Force.2005.1080p.NF.WEB-DL.DDP2.0.x264-NTG
General
Unique ID : 170257052796045456711590549919860662558 (0x801650CC9F8A0DD98C481FD6142A211E)
Complete name : Crimson.Force.2005.WEB-DL.1080p.mkv
Format : Matroska
Format version : Version 4 / Version 2
File size : 5.06 GiB
Duration : 1 h 31 min
Overall bit rate mode : Variable
Overall bit rate : 7 943 kb/s
Encoded date : UTC 2018-08-27 18:58:25
Writing application : mkvmerge v7.1.0 ('Good Love') 64bit built on Jul 27 2014 13:06:55
Writing library : libebml v1.3.0 + libmatroska v1.4.1

Video
ID : 1
Format : AVC
Format/Info : Advanced Video Codec
Format profile : [email protected]
Format settings : CABAC / 3 Ref Frames
Format settings, CABAC : Yes
Format settings, ReFrames : 3 frames
Codec ID : V_MPEG4/ISO/AVC
Duration : 1 h 31 min
Bit rate mode : Variable
Bit rate : 7 500 kb/s
Maximum bit rate : 11.2 Mb/s
Width : 1 920 pixels
Height : 1 080 pixels
Display aspect ratio : 16:9
Frame rate mode : Constant
Frame rate : 23.976 (24000/1001) FPS
Color space : YUV
Chroma subsampling : 4:2:0
Bit depth : 8 bits
Scan type : Progressive
Bits/(Pixel*Frame) : 0.151
Stream size : 4.77 GiB (94%)
Writing library : x264 core 148 r2715 7e75228
Encoding settings : cabac=1 / ref=3 / deblock=1:0:0 / analyse=0x1:0x111 / me=umh / subme=10 / psy=1 / psy_rd=1.00:0.00 / mixed_ref=1 / me_range=24 / chroma_me=1 / trellis=2 / 8x8dct=0 / cqm=0 / deadzone=21,11 / fast_pskip=1 / chroma_qp_offset=-2 / threads=8 / lookahead_threads=1 / sliced_threads=0 / nr=0 / decimate=1 / interlaced=0 / bluray_compat=0 / stitchable=1 / constrained_intra=0 / bframes=2 / b_pyramid=0 / b_adapt=2 / b_bias=0 / direct=3 / weightb=1 / open_gop=0 / weightp=2 / keyint=48 / keyint_min=25 / scenecut=0 / intra_refresh=0 / rc_lookahead=48 / rc=2pass / mbtree=1 / bitrate=7500 / ratetol=1.0 / qcomp=0.50 / qpmin=6 / qpmax=51 / qpstep=4 / cplxblur=20.0 / qblur=0.5 / vbv_maxrate=11250 / vbv_bufsize=15000 / nal_hrd=vbr / filler=0 / ip_ratio=1.40 / aq=1:1.00
Language : English
Default : Yes
Forced : No

Audio #1
ID : 2
Format : AC-3
Format/Info : Audio Coding 3
Commercial name : Dolby Digital
Codec ID : A_AC3
Duration : 1 h 31 min
Bit rate mode : Constant
Bit rate : 224 kb/s
Channel(s) : 2 channels
Channel layout : L R
Sampling rate : 48.0 kHz
Frame rate : 31.250 FPS (1536 SPF)
Bit depth : 16 bits
Compression mode : Lossy
Stream size : 146 MiB (3%)
Language : Russian
Service kind : Complete Main
Default : Yes
Forced : No

Audio #2
ID : 3
Format : AC-3
Format/Info : Audio Coding 3
Commercial name : Dolby Digital
Codec ID : A_AC3
Duration : 1 h 31 min
Bit rate mode : Constant
Bit rate : 224 kb/s
Channel(s) : 2 channels
Channel layout : L R
Sampling rate : 48.0 kHz
Frame rate : 31.250 FPS (1536 SPF)
Bit depth : 16 bits
Compression mode : Lossy
Stream size : 146 MiB (3%)
Language : English
Service kind : Complete Main
Default : No
Forced : No

Text
ID : 4
Format : UTF-8
Codec ID : S_TEXT/UTF8
Codec ID/Info : UTF-8 Plain Text
Duration : 1 h 29 min
Bit rate : 67 b/s
Count of elements : 1414
Stream size : 44.1 KiB (0%)
Title : SDH
Language : English
Default : No
Forced : No

Menu
00:00:00.000 : en:00:00:00.000
00:00:00.375 : en:00:00:00.375
00:13:56.961 : en:00:13:56.961
00:28:18.989 : en:00:28:18.989
00:43:42.620 : en:00:43:42.620
00:59:20.432 : en:00:59:20.432
01:10:18.423 : en:01:10:18.423
01:18:56.899 : en:01:18:56.899
01:24:22.808 : en:01:24:22.808
Скриншоты
 

Вложения

  • 13,5 KB Просмотры: 1
    Личеров 0
    Сидеров 0
    Файлов 1
    Объем 5,1 GB

Привет!

Мы группа людей которые решили помочь другим в решении их проблем, а так же пользователям с поиском самых свежих и качественных инфопродуктов. За 4 с небольшим месяца мы создали этот форум на который заходят ежедневно тысячи человек и посещаемость постоянно растёт. Мы создали панель лицензирования для защиты PHP скриптов от воровства и SEO панель для мониторинга наших сайтов и выбора верной стратегии их развития. Мы надеемся что то что мы создали пригодится Вам и возможно Вы поможете нам развиваться и совершенствоваться вместе с Вами.

Статистика форума

Темы
406.601
Сообщения
464.997
Пользователи
84.322
Новый пользователь
53414

Приложения форума для iOS и Android


У ркн там нет власти ;)
Приватные разговоры
Помощь Пользователи
    Вы не присоединились ни к одной комнате.