За последнюю неделю опубликовано 62 новых материалов.
Инструкция новичку Путеводитель по форуму Прокси для Telegram Показать подсказки , это бомба!

Скачать Звездные врата / Stargate (1994) BDRip-AVC | D | Director's Cut бесплатно через торрент

  • Поучаствуй (в качестве покупателя) в любых пяти совместных покупках (кроме завершённых и "Моментальных") и получи группу "Новичок" навсегда -> ссылка на раздел
  • Получай до 480 рублей за каждого приглашенного пользователя!
    представляем Вам очередное расширение партнерской программы, подробности описаны тут -> ссылка
  • 90% материалов доступно к скачиванию после простой регистрации!
    Если же ты хочешь скачивать материалы без требования оставлять отзывы то получи группу "Новичок", 10 способов повышения описаны тут -> ссылка
  • К сожалению количество битых ссылок растет и мы уже не можем их оперативно восстанавливать поэтому просим помощи у каждого нашего пользователя.
    С сегодняшнего дня, за каждую восстановленную ссылку мы заплатим Вам.
    Подробнее тут -> ссылка
  • Перенесем твои заслуги с другого ресурса!
    Мы понимаем как сложно прокачивать аккаунты на форумах, вроде раскачал аккаунт, а тут появляется ресурс в 100 раз круче но тоже с системой прокачки и снова качать аккаунт...
    Предлагаем вам перенести Ваши заслуги на другом подобном ресурсе к нам.
    Подробности описаны тут -> ссылка
  • Вы можете получать по 2.5% с каждой покупки и продажи на маркете! Подробности в теме Партнёрская программа
Если Вы не хотите скачивать, Вы всегда можетепосмотретьонлайн, просто нажмите кнопку ниже :

Открыть плеер

Torrent_Bot

Торрент-Бот
Бот форума
4 Окт 2016
92
163
20



Информация о фильме
Название: Звездные врата
Оригинальное название: Stargate
Год выхода: 1994
Жанр: фантастика, боевик, приключения
Режиссер: Роланд Эммерих
В ролях: Курт Рассел, Джеймс Спэйдер, Алексис Крус, Вивека Линдфорс, Мили Авитал, Джон Дил, Леон Риппи, Карлос Лаучу, Джимон Хунсу, Эрик Авари

О фильме:
1928 год. Египет. Археолог находит странное сооружение. Через много лет уже в наше время его дочь привлекает молодого специалиста Джексона для разгадки тайны, над которой бьются ученые на военной базе в горах.

Таинственное сооружение оказывается проходом в другие миры. С группой спецназа Джексон и полковник отправляются через звездные врата навстречу неизведанному. А там их ждут суровые испытания и борьба, от исхода которой зависит судьба человечества.



Выпущено: Франция, США
Продолжительность: 02:09:54
Перевод: Дубляж | ТВ-3 (студия "Zone Vision" 2019г.) + MVO "Гладис" (на добавленные сцены режиссёрской версии)
Субтитры: Русские, Английские

Файл
Формат: Matroska
Качество: BDRip-AVC
Видео: 960x400 at 23.976 fps, x264, ~2697 kbps, 0.293 bpp
Аудио: AC3, 2 ch, ~192 kbps - | Русский | -
Формат субтитров: softsub (SRT)

M/I
General
Complete name : Звездные врата.(1994).BDRip-AVC.D.C.DUB.mkv
Format : Matroska
Format version : Version 4
File size : 2.62 GiB
Duration : 2 h 9 min
Overall bit rate : 2 891 kb/s
Movie name : Звездные врата.(1994).BDRip-AVC.D.C.DUB
Encoded date : UTC 2020-08-08 08:44:25
Writing application : mkvmerge v49.0.0 ('Sick Of Losing Soulmates') 64-bit
Writing library : libebml v1.4.0 + libmatroska v1.6.1
Cover : Yes
Attachments : Cover.jpg / Cover 2.jpg

Video
ID : 1
Format : AVC
Format/Info : Advanced Video Codec
Format profile : [email protected]
Format settings : CABAC / 11 Ref Frames
Format settings, CABAC : Yes
Format settings, Reference : 11 frames
Codec ID : V_MPEG4/ISO/AVC
Duration : 2 h 9 min
Bit rate : 2 697 kb/s
Width : 960 pixels
Height : 400 pixels
Display aspect ratio : 2.40:1
Frame rate mode : Constant
Frame rate : 23.976 (24000/1001) FPS
Color space : YUV
Chroma subsampling : 4:2:0
Bit depth : 8 bits
Scan type : Progressive
Bits/(Pixel*Frame) : 0.293
Stream size : 2.45 GiB (93%)
Title : Режиссерская версия
Writing library : x264 core 142 r2389kMod 956c8d8
Encoding settings : cabac=1 / ref=11 / deblock=1:-2:-1 / analyse=0x3:0x133 / me=umh / subme=11 / psy=1 / fade_compensate=0.00 / psy_rd=1.10:0.00 / mixed_ref=1 / me_range=64 / chroma_me=1 / trellis=2 / 8x8dct=1 / cqm=0 / deadzone=21,11 / fast_pskip=0 / chroma_qp_offset=-2 / threads=6 / lookahead_threads=1 / sliced_threads=0 / nr=0 / decimate=0 / interlaced=0 / bluray_compat=0 / constrained_intra=0 / fgo=0 / bframes=11 / b_pyramid=2 / b_adapt=2 / b_bias=0 / direct=3 / weightb=1 / open_gop=0 / weightp=2 / keyint=240 / keyint_min=23 / scenecut=40 / intra_refresh=0 / rc_lookahead=120 / rc=2pass / mbtree=0 / bitrate=2697 / ratetol=1.0 / qcomp=0.80 / qpmin=0 / qpmax=69 / qpstep=4 / cplxblur=20.0 / qblur=0.5 / vbv_maxrate=20000 / vbv_bufsize=25000 / nal_hrd=none / filler=0 / ip_ratio=1.10 / pb_ratio=1.20 / aq=1:0.80 / zones=177930,186858,b=0.15
Language : English
Default : Yes
Forced : No
Color range : Limited
Matrix coefficients : BT.709

Audio
ID : 2
Format : AC-3
Format/Info : Audio Coding 3
Commercial name : Dolby Digital
Codec ID : A_AC3
Duration : 2 h 9 min
Bit rate mode : Constant
Bit rate : 192 kb/s
Channel(s) : 2 channels
Channel layout : L R
Sampling rate : 48.0 kHz
Frame rate : 31.250 FPS (1536 SPF)
Compression mode : Lossy
Stream size : 178 MiB (7%)
Title : DUB_[ТВ-3]
Language : Russian
Service kind : Complete Main
Default : Yes
Forced : No

Text #1
ID : 3
Format : UTF-8
Codec ID : S_TEXT/UTF8
Codec ID/Info : UTF-8 Plain Text
Duration : 2 h 2 min
Bit rate : 43 b/s
Count of elements : 656
Stream size : 39.1 KiB (0%)
Title : Русские
Language : Russian
Default : No
Forced : No

Text #2
ID : 4
Format : UTF-8
Codec ID : S_TEXT/UTF8
Codec ID/Info : UTF-8 Plain Text
Duration : 1 h 58 min
Bit rate : 25 b/s
Count of elements : 680
Stream size : 22.1 KiB (0%)
Title : Английские #1
Language : English
Default : No
Forced : No

Text #3
ID : 5
Format : UTF-8
Codec ID : S_TEXT/UTF8
Codec ID/Info : UTF-8 Plain Text
Duration : 1 h 58 min
Bit rate : 25 b/s
Count of elements : 858
Stream size : 22.3 KiB (0%)
Title : Английские #2
Language : English
Default : No
Forced : No

Menu
00:00:00.000 : en:Chapter 1
00:04:00.365 : en:Chapter 2
00:06:42.068 : en:Chapter 3
00:10:24.790 : en:Chapter 4
00:12:08.602 : en:Chapter 5
00:21:35.292 : en:Chapter 6
00:28:50.353 : en:Chapter 7
00:33:23.418 : en:Chapter 8
00:36:06.080 : en:Chapter 9
00:44:40.135 : en:Chapter 10
00:51:14.988 : en:Chapter 11
00:55:36.166 : en:Chapter 12
01:01:27.141 : en:Chapter 13
01:12:55.954 : en:Chapter 14
01:16:49.187 : en:Chapter 15
01:23:59.283 : en:Chapter 16
01:27:04.761 : en:Chapter 17
01:31:51.546 : en:Chapter 18
01:43:10.058 : en:Chapter 19
01:45:41.585 : en:Chapter 20
01:49:30.104 : en:Chapter 21
01:58:17.173 : en:Chapter 22
02:01:32.493 : en:Chapter 23
02:03:25.356 : en:Chapter 24
Скриншоты
 

Вложения

  • 53,6 KB Просмотры: 0
    Личеров 0
    Сидеров 0
    Файлов 1
    Объем 2,6 GB

Привет!

Мы группа людей которые решили помочь другим в решении их проблем, а так же пользователям с поиском самых свежих и качественных инфопродуктов. За 4 с небольшим месяца мы создали этот форум на который заходят ежедневно тысячи человек и посещаемость постоянно растёт. Мы создали панель лицензирования для защиты PHP скриптов от воровства и SEO панель для мониторинга наших сайтов и выбора верной стратегии их развития. Мы надеемся что то что мы создали пригодится Вам и возможно Вы поможете нам развиваться и совершенствоваться вместе с Вами.

Статистика форума

Темы
406.697
Сообщения
465.154
Пользователи
84.765
Новый пользователь
Джалиля

Приложения форума для iOS и Android


У ркн там нет власти ;)
Приватные разговоры
Помощь Пользователи
    Вы не присоединились ни к одной комнате.