За последнюю неделю опубликовано 63 новых материалов.
Инструкция новичку Путеводитель по форуму Прокси для Telegram Показать подсказки , это бомба!

Скачать Золушка '80 / Cenerentola '80 / Cinderella '80 (1984) BDRemux 1080i | P бесплатно через торрент

  • Поучаствуй (в качестве покупателя) в любых пяти совместных покупках (кроме завершённых и "Моментальных") и получи группу "Новичок" навсегда -> ссылка на раздел
  • Получай до 480 рублей за каждого приглашенного пользователя!
    представляем Вам очередное расширение партнерской программы, подробности описаны тут -> ссылка
  • 90% материалов доступно к скачиванию после простой регистрации!
    Если же ты хочешь скачивать материалы без требования оставлять отзывы то получи группу "Новичок", 10 способов повышения описаны тут -> ссылка
  • К сожалению количество битых ссылок растет и мы уже не можем их оперативно восстанавливать поэтому просим помощи у каждого нашего пользователя.
    С сегодняшнего дня, за каждую восстановленную ссылку мы заплатим Вам.
    Подробнее тут -> ссылка
  • Перенесем твои заслуги с другого ресурса!
    Мы понимаем как сложно прокачивать аккаунты на форумах, вроде раскачал аккаунт, а тут появляется ресурс в 100 раз круче но тоже с системой прокачки и снова качать аккаунт...
    Предлагаем вам перенести Ваши заслуги на другом подобном ресурсе к нам.
    Подробности описаны тут -> ссылка
  • Вы можете получать по 2.5% с каждой покупки и продажи на маркете! Подробности в теме Партнёрская программа
Если Вы не хотите скачивать, Вы всегда можетепосмотретьонлайн, просто нажмите кнопку ниже :

Открыть плеер

Torrent_Bot

Торрент-Бот
Бот форума
4 Окт 2016
92
160
20

Название: Золушка '80
Оригинальное название: Cenerentola '80
Год выхода: 1984
Производство: Италия, Франция / Radiotelevisione Italiana, Television Center, Rai 2, Stand Art

Жанр: Мелодрама, драма, мюзикл
Перевод: Профессиональный (многоголосый, закадровый)
Продолжительность: 03:47:02 (00:53:06 + 00:54:34 + 00:56:07 + 01:02:45)

Режиссер: Роберто Маленотти
В ролях: Бонни Бьянко, Пьер Коссо, Сандра Мило, Адольфо Чели, Витторио Каприоли, Кендал Кэлдуэлл, Сильва Кошина, Эди Анжелилло, Сабина Сегатори, Леони Форлити

Описание: Синди живёт в Нью-Йорке, и учится в школе искусств. Её родной отец Гарри Кардоне , итальянец, принёс её крошкой домой к своей жене и двум дочерям, после смерти матери Синди. Гарри управляет итальянской пиццерией, а его жена и две дочери тратят деньги, не уделяя большого внимания Синди. Синди хорошо танцует, но её мечта — стать певицей. Мачеха Мюриэл и две сестры едут на обучение в Италию, и берут с собой Синди. В аэропорту Синди знакомится с итальянцем, похожим на оборванца...

Формат: MKV
Качество: BDRemux 1080i
Видео : AVC/X.264, 1920x1080, 25fps, ~18.9 Mb/s
Аудио 01: DTS, 2 ch, 1536 kbps - Русский MVO (СВ-Кадр)
Аудио 02: DTS, 2 ch, 1536 kbps - Итальянский (Original)

Субтитры: Отсутствуют





Mediainfo
General
Unique ID : 292976019006801845124546317771693388898 (0xDC6920F8FCF1D4392A2C5FF847D47462)
Complete name : D:Download / Cenerentola'80 / Cenerentola'80 Part 1.mkv
Format : Matroska
Format version : Version 4
File size : 8.16 GiB
Duration : 53 min 6 s
Overall bit rate mode : Variable
Overall bit rate : 22.0 Mb/s
Movie name : Золушка '80 / Cenerentola'80 / Cinderella'80 (1984)
Encoded date : UTC 2020-05-13 05:21:31
Writing application : mkvmerge v45.0.0 ('Heaven in Pennies') 64-bit
Writing library : libebml v1.3.10 + libmatroska v1.5.2
Cover : Yes
Attachments : Cover.jpg

Video
ID : 1
Format : AVC
Format/Info : Advanced Video Codec
Format profile : [email protected]
Format settings : CABAC / 4 Ref Frames
Format settings, CABAC : Yes
Format settings, Reference fra : 4 frames
Codec ID : V_MPEG4/ISO/AVC
Duration : 53 min 6 s
Bit rate mode : Variable
Bit rate : 18.9 Mb/s
Maximum bit rate : 38.0 Mb/s
Width : 1 920 pixels
Height : 1 080 pixels
Display aspect ratio : 16:9
Frame rate mode : Constant
Frame rate : 25.000 FPS
Color space : YUV
Chroma subsampling : 4:2:0
Bit depth : 8 bits
Scan type : MBAFF
Scan type, store method : Interleaved fields
Scan order : Top Field First
Bits/(Pixel*Frame) : 0.365
Stream size : 7.02 GiB (86%)
Title : Cenerentola'80 (Part 1)
Language : Italian
Default : Yes
Forced : No

Audio #1
ID : 2
Format : DTS
Format/Info : Digital Theater Systems
Codec ID : A_DTS
Duration : 53 min 6 s
Bit rate mode : Constant
Bit rate : 1 536 kb/s
Channel(s) : 2 channels
Channel layout : L R
Sampling rate : 48.0 kHz
Frame rate : 93.750 FPS (512 SPF)
Bit depth : 16 bits
Compression mode : Lossy
Stream size : 583 MiB (7%)
Title : MVO (СВ-Кадр)
Language : Russian
Default : Yes
Forced : No

Audio #2
ID : 3
Format : DTS
Format/Info : Digital Theater Systems
Codec ID : A_DTS
Duration : 53 min 6 s
Bit rate mode : Constant
Bit rate : 1 536 kb/s
Channel(s) : 2 channels
Channel layout : L R
Sampling rate : 48.0 kHz
Frame rate : 93.750 FPS (512 SPF)
Bit depth : 16 bits
Compression mode : Lossy
Stream size : 583 MiB (7%)
Title : Original
Language : Italian
Default : No
Forced : No

Menu
00:00:00.000 : :Глава 01
00:05:02.240 : :Глава 02
00:10:23.360 : :Глава 03
00:13:47.520 : :Глава 04
00:20:27.880 : :Глава 05
00:27:41.120 : :Глава 06
00:33:14.160 : :Глава 07
00:39:26.960 : :Глава 08
00:44:32.720 : :Глава 09
00:50:46.200 : :Глава 10
Скриншоты




 

Вложения

  • 88,2 KB Просмотры: 0
    Личеров 0
    Сидеров 0
    Файлов 4
    Объем 34,8 GB

Привет!

Мы группа людей которые решили помочь другим в решении их проблем, а так же пользователям с поиском самых свежих и качественных инфопродуктов. За 4 с небольшим месяца мы создали этот форум на который заходят ежедневно тысячи человек и посещаемость постоянно растёт. Мы создали панель лицензирования для защиты PHP скриптов от воровства и SEO панель для мониторинга наших сайтов и выбора верной стратегии их развития. Мы надеемся что то что мы создали пригодится Вам и возможно Вы поможете нам развиваться и совершенствоваться вместе с Вами.

Статистика форума

Темы
406.656
Сообщения
465.106
Пользователи
84.673
Новый пользователь
cltdyj

Приложения форума для iOS и Android


У ркн там нет власти ;)
Приватные разговоры
Помощь Пользователи
    Вы не присоединились ни к одной комнате.