За последнюю неделю опубликовано 44 новых материалов.
Инструкция новичку Путеводитель по форуму Прокси для Telegram Показать подсказки , это бомба!

Скачать Zолушка (2012) BDRip 1080p от NOLIMITS-TEAM бесплатно через торрент

  • Поучаствуй (в качестве покупателя) в любых пяти совместных покупках (кроме завершённых и "Моментальных") и получи группу "Новичок" навсегда -> ссылка на раздел
  • Получай до 480 рублей за каждого приглашенного пользователя!
    представляем Вам очередное расширение партнерской программы, подробности описаны тут -> ссылка
  • 90% материалов доступно к скачиванию после простой регистрации!
    Если же ты хочешь скачивать материалы без требования оставлять отзывы то получи группу "Новичок", 10 способов повышения описаны тут -> ссылка
  • К сожалению количество битых ссылок растет и мы уже не можем их оперативно восстанавливать поэтому просим помощи у каждого нашего пользователя.
    С сегодняшнего дня, за каждую восстановленную ссылку мы заплатим Вам.
    Подробнее тут -> ссылка
  • Перенесем твои заслуги с другого ресурса!
    Мы понимаем как сложно прокачивать аккаунты на форумах, вроде раскачал аккаунт, а тут появляется ресурс в 100 раз круче но тоже с системой прокачки и снова качать аккаунт...
    Предлагаем вам перенести Ваши заслуги на другом подобном ресурсе к нам.
    Подробности описаны тут -> ссылка
  • Вы можете получать по 2.5% с каждой покупки и продажи на маркете! Подробности в теме Партнёрская программа
Если Вы не хотите скачивать, Вы всегда можетепосмотретьонлайн, просто нажмите кнопку ниже :

Открыть плеер

Torrent_Bot

Торрент-Бот
Бот форума
4 Окт 2016
90
168
20
Zолушка (2012) BDRip 1080p от NOLIMITS-TEAM

- Информация о фильме:

Оригинальное название: Zолушка
Год выхода: 2012
Жанр:мелодрама, комедия
Режиссер: Сергей Иванов
В ролях: Кристина Асмус, Никита Ефремов, Артем Ткаченко, Елизавета Боярская, Нонна Гришаева, Александр Цекало, Юрий Стоянов, Сергей Бурунов, Анна Шерлинг, Маргарита Бычкова



- О фильме:
Героиня фильма, Маша Крапивина, - пока еще не красавица, и не то чтобы сказочная умница. Обычная девушка, рискнувшая, подобно тысячам ее сверстниц из самых разных уголков страны, покорить Москву, покинув свой родной провинциальный городок. Вечером учится, а с утра до вечера работает «на вредном производстве» - горничной в очень состоятельной семье. Крупу, конечно, не перебирает, но работы хватает: только успевай крутиться, чтобы угодить властной хозяйке и двум ее взбалмошным дочерям.

А Маша, между тем, как и миллионы других девчонок, по уши влюблена в известного певца Алексея Королевича. Она - его самая преданная фанатка, увы, без малейшего шанса на знакомство с предметом своих девичьих грёз. И надо же такому случиться - «знатное» семейство получает приглашение на бал, а точнее, закрытую вечеринку, где соберется вся культурная элита страны, а главное - там будет выступать ОН! И совершенно очевидно, что с этой минуты Маша готова на любые жертвы, чтобы тоже оказаться там. Но как? На помощь нашей Золушке, конечно же, приходит добрая фея в лице родной тетки Агнии, главного редактора издания «Желтый PRESS». Она готова добыть для «бедной родственницы» заветное приглашение, но с одним условием: Маша отправится на вечеринку с непростым и довольно пикантным журналистским заданием...

На этом совпадения с известной сказкой не заканчиваются: появится здесь и Король вполне олигархического типа, и Принц в окружении целой обоймы сегодняшних «звезд» шоу-бизнеса, и бой курантов, и даже «хрустальная туфелька», роль которой исполнит... Нет, пожалуй, пусть это пока останется тайной.

Продолжительность: 01:27:40
Перевод: Оригинал
Субтитры: Отсутствуют
Выпущено: Россия



- Файл:
Качество: BDRip 1080p (исходник Blu-ray)
Видео: 1920x1040, 6755 Кбит/сек, 25,000 кадр/сек, AVC, x264, 16:9 , 0.135 Бит/(Пиксели*Кадры)
Аудио: AC-3, 384 Кбит/сек, 6 канала(ов), 48,0 КГц
Контейнер: MKV
Размер: 4.37 Гб



d1fbd44c1cdae9f9debba5df9fdfd7e7.png9a4edafcb974993562ec68f4312266d0.png



Релиз Группа | Автор Рипа: | kozak


MediaInfo:
General
Unique ID : 249941739541159653980143788044670656824 (0xBC09072E82E1BDA7BD8EEDC2AD7AE138)
Complete name : J:ZolushkaZolushka (2012) - 1080pZolushka(2012).BDrip.1080p.NOLIMITS-TEAM.mkv
Format : Matroska
Format version : Version 2
File size : 4.37 GiB
Duration : 1h 27mn
Overall bit rate : 7 133 Kbps
Movie name : Rip by kozak (NOLIMITS-TEAM.RU)
Encoded date : UTC 2012-04-11 05:55:44
Writing application : mkvmerge v5.5.0 ('Healer') built on Apr 6 2012 21:43:24
Writing library : libebml v1.2.3 + libmatroska v1.3.0

Video
ID : 1
Format : AVC
Format/Info : Advanced Video Codec
Format profile : [email protected]
Format settings, CABAC : Yes
Format settings, ReFrames : 4 frames
Codec ID : V_MPEG4/ISO/AVC
Duration : 1h 27mn
Bit rate : 6 755 Kbps
Width : 1 920 pixels
Height : 1 040 pixels
Display aspect ratio : 16:9
Original display aspect ratio : 16:9
Frame rate : 25.000 fps
Color space : YUV
Chroma subsampling : 4:2:0
Bit depth : 8 bits
Scan type : Progressive
Bits/(Pixel*Frame) : 0.135
Stream size : 4.05 GiB (93%)
Title : Zолушка (2012).BDrip.1080p.NOLIMITS-TEAM
Writing library : x264 core 122 r2184 5c85e0a
Encoding settings : cabac=1 / ref=4 / deblock=1:-3:-2 / analyse=0x3:0x133 / me=umh / subme=11 / psy=1 / psy_rd=1.00:0.15 / mixed_ref=1 / me_range=32 / chroma_me=1 / trellis=2 / 8x8dct=1 / cqm=0 / deadzone=21,11 / fast_pskip=0 / chroma_qp_offset=-3 / threads=12 / sliced_threads=0 / slices=4 / nr=0 / decimate=0 / interlaced=0 / bluray_compat=0 / constrained_intra=0 / bframes=5 / b_pyramid=2 / b_adapt=2 / b_bias=0 / direct=3 / weightb=1 / open_gop=0 / weightp=2 / keyint=240 / keyint_min=24 / scenecut=40 / intra_refresh=0 / rc_lookahead=60 / rc=2pass / mbtree=1 / bitrate=6755 / ratetol=2.0 / qcomp=0.60 / qpmin=0 / qpmax=51 / qpstep=4 / cplxblur=20.0 / qblur=0.5 / ip_ratio=1.40 / aq=2:1.00
Language : English
Default : Yes
Forced : No

Audio
ID : 2
Format : AC-3
Format/Info : Audio Coding 3
Mode extension : CM (complete main)
Codec ID : A_AC3
Duration : 1h 27mn
Bit rate mode : Constant
Bit rate : 384 Kbps
Channel(s) : 6 channels
Channel positions : Front: L C R, Side: L R, LFE
Sampling rate : 48.0 KHz
Bit depth : 16 bits
Compression mode : Lossy
Stream size : 241 MiB (5%)
Title : Оригинал
Language : Russian
Default : Yes
Forced : No

Menu
00:00:00.000 : en:00:00:00.000
00:04:06.080 : en:00:04:06.080
00:14:49.440 : en:00:14:49.440
00:26:15.440 : en:00:26:15.440
00:37:19.920 : en:00:37:19.920
00:53:20.560 : en:00:53:20.560
01:05:11.880 : en:01:05:11.880
01:16:17.520 : en:01:16:17.520
01:24:51.640 : en:01:24:51.640

Скриншоты:

Скринлист:





Уважаемые пользователи, не нужно заказывать фильмы в комментариях. Хотите заказать релиз - воспользуйтесь Столом Заказов на самом сайте Релиз-Группы.
С уважением, Администрация сайта NoLimits-Team
 

Вложения

Привет!

Мы группа людей которые решили помочь другим в решении их проблем, а так же пользователям с поиском самых свежих и качественных инфопродуктов. За 4 с небольшим месяца мы создали этот форум на который заходят ежедневно тысячи человек и посещаемость постоянно растёт. Мы создали панель лицензирования для защиты PHP скриптов от воровства и SEO панель для мониторинга наших сайтов и выбора верной стратегии их развития. Мы надеемся что то что мы создали пригодится Вам и возможно Вы поможете нам развиваться и совершенствоваться вместе с Вами.

Статистика форума

Темы
410.923
Сообщения
469.325
Пользователи
88.224
Новый пользователь
serg202121

Приложения форума для iOS и Android


У ркн там нет власти ;)
Приватные разговоры
Помощь Пользователи
    Вы не присоединились ни к одной комнате.