За последнюю неделю опубликовано 27 новых материалов.
Инструкция новичку Путеводитель по форуму Прокси для Telegram Показать подсказки , это бомба!

Скачать Зои / Zoe (2018) WEB-DL 1080p | iTunes бесплатно через торрент

  • Поучаствуй (в качестве покупателя) в любых пяти совместных покупках (кроме завершённых и "Моментальных") и получи группу "Новичок" навсегда -> ссылка на раздел
  • Получай до 480 рублей за каждого приглашенного пользователя!
    представляем Вам очередное расширение партнерской программы, подробности описаны тут -> ссылка
  • 90% материалов доступно к скачиванию после простой регистрации!
    Если же ты хочешь скачивать материалы без требования оставлять отзывы то получи группу "Новичок", 10 способов повышения описаны тут -> ссылка
  • К сожалению количество битых ссылок растет и мы уже не можем их оперативно восстанавливать поэтому просим помощи у каждого нашего пользователя.
    С сегодняшнего дня, за каждую восстановленную ссылку мы заплатим Вам.
    Подробнее тут -> ссылка
  • Перенесем твои заслуги с другого ресурса!
    Мы понимаем как сложно прокачивать аккаунты на форумах, вроде раскачал аккаунт, а тут появляется ресурс в 100 раз круче но тоже с системой прокачки и снова качать аккаунт...
    Предлагаем вам перенести Ваши заслуги на другом подобном ресурсе к нам.
    Подробности описаны тут -> ссылка
  • Вы можете получать по 2.5% с каждой покупки и продажи на маркете! Подробности в теме Партнёрская программа
Если Вы не хотите скачивать, Вы всегда можетепосмотретьонлайн, просто нажмите кнопку ниже :

Открыть плеер

Torrent_Bot

Торрент-Бот
Бот форума
4 Окт 2016
93
156
20
Информация о фильме
Название: Зои
Оригинальное название: Zoe
Год выхода: 2018
Жанр: Фантастика, мелодрама
Страна: США
Перевод: Дублированный | iTunes
Продолжительность: 01:43:43
Режиссер: Дрейк Доримус
В ролях: Юэн МакГрегор, Леа Сейду, Тео Джеймс, Рашида Джонс, Кристина Агилера, Миранда Отто, Энтони Шим, Donovan Colan, Мэттью Грей Гублер, Ричард Бримблкомб и др.

О фильме: Зои и Коул — ученые будущего, которые разрабатывают идеальных романтических партнеров — синтетиков. Их цель — избавить людей от одиночества и неразделенной любви. Но чем дальше они продвигаются в своих экспериментах, тем сомнительнее выглядят результаты их работы…



Файл
Формат: MKV
Качество: WEB-DL 1080p
Видео: MPEG-4 AVC, 1912x792, 4586 kbps, 23,976 fps
Звук#1: русский, AC3, 5.1 ch, 48 kHz, 384 kbps | iTunes
Звук#2: английский, AC3, 5.1 ch, 48 kHz, 384 kbps | оригинал
Субтитры: английские

MI
General
Уникальный идентификатор : 190599683998304030175512142302107460131 (0x8F6429F40F52A27CB644DA93BBACE223)
Полное имя : F:TorrentZoeWEB-DL1080p.mkv
Формат : Matroska
Версия формата : Version 4 / Version 2
Размер файла : 3.88 GiB
Продолжительность : 1 h 43 min
Общий поток : 5 355 kb/s
Дата кодирования : UTC 2018-09-19 21:34:45
Программа кодирования : mkvmerge v9.5.0 ('Quiet Fire') 64bit
Библиотека кодирования : libebml v1.3.4 + libmatroska v1.4.5

Video
Идентификатор : 1
Формат : AVC
Формат/Информация : Advanced Video Codec
Профиль формата : High@L4
Настройки формата : CABAC / 5 Ref Frames
Параметр CABAC формата : Yes
Параметр RefFrames формата : 5 frames
Идентификатор кодека : V_MPEG4/ISO/AVC
Продолжительность : 1 h 43 min
Битрейт : 4 586 kb/s
Ширина : 1 912 pixels
Высота : 792 pixels
Соотношение сторон : 2.40:1
Режим частоты кадров : Constant
Частота кадров : 23.976 FPS
Цветовое пространство : YUV
Субдискретизация насыщенности : 4:2:0
Битовая глубина : 8 bits
Тип развёртки : Progressive
Бит/(Пиксели*Кадры) : 0.126
Размер потока : 3.32 GiB (86%)
Язык : English
Default : Yes
Forced : No
Цветовой диапазон : Limited
Основные цвета : BT.709
Характеристики трансфера : BT.709
Коэффициенты матрицы : BT.709

Audio #1
Идентификатор : 2
Формат : AC-3
Формат/Информация : Audio Coding 3
Идентификатор кодека : A_AC3
Продолжительность : 1 h 43 min
Вид битрейта : Constant
Битрейт : 384 kb/s
Каналы : 6 channels
Расположение каналов : Front: L C R, Side: L R, LFE
Частота : 48.0 kHz
Частота кадров : 31.250 FPS (1536 SPF)
Битовая глубина : 16 bits
Метод сжатия : Lossy
Размер потока : 285 MiB (7%)
Язык : Russian
Default : Yes
Forced : No

Audio #2
Идентификатор : 3
Формат : AC-3
Формат/Информация : Audio Coding 3
Идентификатор кодека : A_AC3
Продолжительность : 1 h 43 min
Вид битрейта : Constant
Битрейт : 384 kb/s
Каналы : 6 channels
Расположение каналов : Front: L C R, Side: L R, LFE
Частота : 48.0 kHz
Частота кадров : 31.250 FPS (1536 SPF)
Битовая глубина : 16 bits
Метод сжатия : Lossy
Размер потока : 285 MiB (7%)
Язык : English
Default : No
Forced : No

Text
Идентификатор : 4
Формат : UTF-8
Идентификатор кодека : S_TEXT/UTF8
Идентификатор кодека/Информация : UTF-8 Plain Text
Продолжительность : 1 h 43 min
Битрейт : 55 b/s
ElementCount : 1332
Размер потока : 42.2 KiB (0%)
Язык : English
Default : No
Forced : No

Menu
00:00:00.000 : en:1
00:02:11.000 : en:2
00:13:28.000 : en:3
00:25:09.000 : en:4
00:35:38.000 : en:5
00:48:04.000 : en:6
01:01:07.000 : en:7
01:11:40.000 : en:8
01:21:26.000 : en:9
01:28:05.000 : en:10
01:38:10.000 : en:11
Скриншоты

 

Вложения

  • 20,4 KB Просмотры: 1
    Личеров 0
    Сидеров 0
    Файлов 1
    Объем 3,9 GB

Привет!

Мы группа людей которые решили помочь другим в решении их проблем, а так же пользователям с поиском самых свежих и качественных инфопродуктов. За 4 с небольшим месяца мы создали этот форум на который заходят ежедневно тысячи человек и посещаемость постоянно растёт. Мы создали панель лицензирования для защиты PHP скриптов от воровства и SEO панель для мониторинга наших сайтов и выбора верной стратегии их развития. Мы надеемся что то что мы создали пригодится Вам и возможно Вы поможете нам развиваться и совершенствоваться вместе с Вами.

Статистика форума

Темы
406.549
Сообщения
464.712
Пользователи
83.418
Новый пользователь
Nata04111

Приложения форума для iOS и Android


У ркн там нет власти ;)
Приватные разговоры
Помощь Пользователи
    Вы не присоединились ни к одной комнате.