За последнюю неделю опубликовано 96 новых материалов.
Инструкция новичку Путеводитель по форуму Прокси для Telegram Показать подсказки , это бомба!

Скачать Злые пальцы / The Fifth Cord / Giornata nera per l'ariete (1971) BDRip 1080p | A бесплатно через торрент

  • Поучаствуй (в качестве покупателя) в любых пяти совместных покупках (кроме завершённых и "Моментальных") и получи группу "Новичок" навсегда -> ссылка на раздел
  • Получай до 480 рублей за каждого приглашенного пользователя!
    представляем Вам очередное расширение партнерской программы, подробности описаны тут -> ссылка
  • 90% материалов доступно к скачиванию после простой регистрации!
    Если же ты хочешь скачивать материалы без требования оставлять отзывы то получи группу "Новичок", 10 способов повышения описаны тут -> ссылка
  • К сожалению количество битых ссылок растет и мы уже не можем их оперативно восстанавливать поэтому просим помощи у каждого нашего пользователя.
    С сегодняшнего дня, за каждую восстановленную ссылку мы заплатим Вам.
    Подробнее тут -> ссылка
  • Перенесем твои заслуги с другого ресурса!
    Мы понимаем как сложно прокачивать аккаунты на форумах, вроде раскачал аккаунт, а тут появляется ресурс в 100 раз круче но тоже с системой прокачки и снова качать аккаунт...
    Предлагаем вам перенести Ваши заслуги на другом подобном ресурсе к нам.
    Подробности описаны тут -> ссылка
  • Вы можете получать по 2.5% с каждой покупки и продажи на маркете! Подробности в теме Партнёрская программа
Если Вы не хотите скачивать, Вы всегда можетепосмотретьонлайн, просто нажмите кнопку ниже :

Открыть плеер

Torrent_Bot

Торрент-Бот
Бот форума
4 Окт 2016
102
153
20



Информация о фильме
Название: Злые пальцы
Оригинальное название: The Fifth Cord / Giornata nera per l'ariete
Год выхода: 1971
Жанр: криминал, детектив, триллер
Режиссер: Луиджи Баццони
В ролях: Франко Неро, Сильвия Монти, Вольфганг Прайсс, Айра фон Фюрстенберг, Эдмунд Пурдом, Росселла Фальк, Ренато Романо, Гуидо Альберти, Лучано Бартоли, Агостина Белли

О фильме: Андреа Билд-пристрастившийся к спиртному циничный журналист, постоянно вступающий в споры со своим издателем и ссорящийся со своей сексуальной женой. Однажды вечером в клубе Андреа становится невольным соучастником покушения на убийство неизвестным человеком. Журналист решает заняться расследованием этого происшествия. Но вместо этого становится главным подозреваемым, когда нескольких постоянных посетителей клуба обнаруживают мертвыми.

Рядом с каждым трупом находят черную перчатку с одним отрезанным пальцем. Все погибшие были вместе с Андреа в клубе в ту злосчастную ночь покушения. Журналист разговаривал со всеми погибшими и даже видел нападавшего, но не может идентифицировать его внешность. Супруга и ребенок Андреа получают серию телефонных звонков с угрозами. Станет ли Андреа, оказавшийся невольным свидетелем нападения, следующей жертвой, или он сам-настоящий убийца?…



Страна: Италия
Продолжительность: 01:32:52
Перевод: Авторский (одноголосый закадровый) Антон Алексеев

Файл
Качество: BDRip 1080p
Видео: MPEG-4 AVC, 11729 Кбит/с, 1920х1040, 23.976 кадр/с
Звук: Русский (AC3, 2 ch, 192 Кбит/с), английский, итальянский (DTS, 1 ch, 768 Кбит/с), английский (AC3, 1 ch, 192 Кбит/с)
Субтитры: Английские

Скриншоты
MediaInfo
Полное имя : D:Giornata.nera.per.l'ariete.1971.x264.BDRip.1080p.NovaLan.mkv
Формат : Matroska
Версия формата : Version 4 / Version 2
Размер файла : 8,86 Гбайт
Продолжительность : 1 ч. 32 м.
Общий поток : 13,7 Мбит/сек
Название фильма : Giornata nera per l'ariete 1971 - NovaLan
Дата кодирования : UTC 2019-02-22 09:31:31
Программа кодирования : mkvmerge v6.9.1 ('Blue Panther') 64bit built on Apr 18 2014 18:23:38
Библиотека кодирования : libebml v1.3.0 + libmatroska v1.4.1

Видео
Идентификатор : 1
Формат : AVC
Формат/Информация : Advanced Video Codec
Профиль формата : High@L4.1
Параметр CABAC формата : Да
Параметр ReFrames формата : 4 кадра
Идентификатор кодека : V_MPEG4/ISO/AVC
Продолжительность : 1 ч. 32 м.
Битрейт : 11,7 Мбит/сек
Ширина : 1920 пикселей
Высота : 1040 пикселей
Соотношение сторон : 1,85:1
Частота кадров : 23,976 кадра/сек
Цветовое пространство : YUV
Субдискретизация насыщенности : 4:2:0
Битовая глубина : 8 бит
Тип развёртки : Прогрессивная
Бит/(Пиксели*Кадры) : 0.245
Размер потока : 7,45 Гбайт (84%)
Заголовок : Sergei7721
Библиотека кодирования : x264 core 157 r2935 545de2f
Настройки программы : cabac=1 / ref=4 / deblock=1:-1:-1 / analyse=0x3:0x113 / me=umh / subme=11 / psy=1 / psy_rd=1.00:0.20 / mixed_ref=1 / me_range=24 / chroma_me=1 / trellis=2 / 8x8dct=1 / cqm=0 / deadzone=21,11 / fast_pskip=0 / chroma_qp_offset=-3 / threads=9 / lookahead_threads=1 / sliced_threads=0 / nr=0 / decimate=0 / interlaced=0 / bluray_compat=0 / constrained_intra=0 / bframes=6 / b_pyramid=2 / b_adapt=2 / b_bias=0 / direct=3 / weightb=1 / open_gop=0 / weightp=2 / keyint=240 / keyint_min=23 / scenecut=40 / intra_refresh=0 / rc_lookahead=40 / rc=2pass / mbtree=0 / bitrate=11729 / ratetol=1.0 / qcomp=0.60 / qpmin=0 / qpmax=69 / qpstep=4 / cplxblur=20.0 / qblur=0.5 / vbv_maxrate=50000 / vbv_bufsize=62500 / nal_hrd=none / filler=0 / ip_ratio=1.40 / pb_ratio=1.30 / aq=1:1.00
Default : Да
Forced : Нет

Аудио #1
Идентификатор : 2
Формат : AC-3
Формат/Информация : Audio Coding 3
Расширение режима : CM (complete main)
Параметр Endianness формата : Big
Идентификатор кодека : A_AC3
Продолжительность : 1 ч. 32 м.
Вид битрейта : Постоянный
Битрейт : 192 Кбит/сек
Каналы : 2 канала
Расположение каналов : Front: L R
Частота : 48,0 КГц
Битовая глубина : 16 бит
Метод сжатия : С потерями
Размер потока : 128 Мбайт (1%)
Язык : Russian
Default : Да
Forced : Нет

Аудио #2
Идентификатор : 3
Формат : DTS
Формат/Информация : Digital Theater Systems
Идентификатор кодека : A_DTS
Продолжительность : 1 ч. 32 м.
Вид битрейта : Постоянный
Битрейт : 755 Кбит/сек
Каналы : 1 канал
Расположение каналов : Front: C
Частота : 48,0 КГц
Битовая глубина : 24 бит
Метод сжатия : С потерями
Размер потока : 501 Мбайт (6%)
Язык : English
Default : Нет
Forced : Нет

Аудио #3
Идентификатор : 4
Формат : DTS
Формат/Информация : Digital Theater Systems
Идентификатор кодека : A_DTS
Продолжительность : 1 ч. 32 м.
Вид битрейта : Постоянный
Битрейт : 755 Кбит/сек
Каналы : 1 канал
Расположение каналов : Front: C
Частота : 48,0 КГц
Битовая глубина : 24 бит
Метод сжатия : С потерями
Размер потока : 501 Мбайт (6%)
Язык : Italian
Default : Нет
Forced : Нет

Аудио #4
Идентификатор : 5
Формат : AC-3
Формат/Информация : Audio Coding 3
Расширение режима : CM (complete main)
Параметр Endianness формата : Big
Идентификатор кодека : A_AC3
Продолжительность : 1 ч. 32 м.
Вид битрейта : Постоянный
Битрейт : 192 Кбит/сек
Каналы : 1 канал
Расположение каналов : Front: C
Частота : 48,0 КГц
Битовая глубина : 16 бит
Метод сжатия : С потерями
Размер потока : 128 Мбайт (1%)
Язык : English
Default : Нет
Forced : Нет

Текст
Идентификатор : 6
Формат : UTF-8
Идентификатор кодека : S_TEXT/UTF8
Идентификатор кодека/Информация : UTF-8 Plain Text
Язык : English
Default : Нет
Forced : Нет

Меню
00:00:00.000 : en:00:00:00.000
00:07:25.403 : en:00:07:25.403
00:15:10.701 : en:00:15:10.701
00:21:53.895 : en:00:21:53.895
00:30:29.869 : en:00:30:29.869
00:39:01.464 : en:00:39:01.464
00:46:25.991 : en:00:46:25.991
00:53:19.487 : en:00:53:19.487
01:00:55.151 : en:01:00:55.151
01:10:04.199 : en:01:10:04.199
01:17:43.325 : en:01:17:43.325
01:25:13.566 : en:01:25:13.566
01:32:51.524 : en:01:32:51.524
 

Вложения

  • 45,2 KB Просмотры: 1
    Личеров 0
    Сидеров 0
    Файлов 1
    Объем 8,9 GB

Привет!

Мы группа людей которые решили помочь другим в решении их проблем, а так же пользователям с поиском самых свежих и качественных инфопродуктов. За 4 с небольшим месяца мы создали этот форум на который заходят ежедневно тысячи человек и посещаемость постоянно растёт. Мы создали панель лицензирования для защиты PHP скриптов от воровства и SEO панель для мониторинга наших сайтов и выбора верной стратегии их развития. Мы надеемся что то что мы создали пригодится Вам и возможно Вы поможете нам развиваться и совершенствоваться вместе с Вами.

Статистика форума

Темы
404.608
Сообщения
461.507
Пользователи
80.351
Новый пользователь
_serg_

Приложения форума для iOS и Android


У ркн там нет власти ;)
Приватные разговоры
Помощь Пользователи
    Вы не присоединились ни к одной комнате.