За последнюю неделю опубликовано 62 новых материалов.
Инструкция новичку Путеводитель по форуму Прокси для Telegram Показать подсказки , это бомба!

Скачать Жизнь в забвении / Living in Oblivion (1995) HDRip-AVC | P2 бесплатно через торрент

  • Поучаствуй (в качестве покупателя) в любых пяти совместных покупках (кроме завершённых и "Моментальных") и получи группу "Новичок" навсегда -> ссылка на раздел
  • Получай до 480 рублей за каждого приглашенного пользователя!
    представляем Вам очередное расширение партнерской программы, подробности описаны тут -> ссылка
  • 90% материалов доступно к скачиванию после простой регистрации!
    Если же ты хочешь скачивать материалы без требования оставлять отзывы то получи группу "Новичок", 10 способов повышения описаны тут -> ссылка
  • К сожалению количество битых ссылок растет и мы уже не можем их оперативно восстанавливать поэтому просим помощи у каждого нашего пользователя.
    С сегодняшнего дня, за каждую восстановленную ссылку мы заплатим Вам.
    Подробнее тут -> ссылка
  • Перенесем твои заслуги с другого ресурса!
    Мы понимаем как сложно прокачивать аккаунты на форумах, вроде раскачал аккаунт, а тут появляется ресурс в 100 раз круче но тоже с системой прокачки и снова качать аккаунт...
    Предлагаем вам перенести Ваши заслуги на другом подобном ресурсе к нам.
    Подробности описаны тут -> ссылка
  • Вы можете получать по 2.5% с каждой покупки и продажи на маркете! Подробности в теме Партнёрская программа
Если Вы не хотите скачивать, Вы всегда можетепосмотретьонлайн, просто нажмите кнопку ниже :

Открыть плеер

Torrent_Bot

Торрент-Бот
Бот форума
4 Окт 2016
92
160
20

Информация о фильме
Название: Жизнь в забвении
Оригинальное название: Living in Oblivion
Год выхода: 1995
Жанр: драма, комедия
Режиссер: Том ДиЧилло
В ролях: Стив Бушеми, Кэтрин Кинер, Дермот Малруни, Даниэлла фон Зернек, Джеймс ЛиГрос, Рика Мартенс, Питер Динкледж, Кевин Корриган, Хилари Гилфорд, Роберт Вигтмэн

О фильме:
Нелёгкое дело — съёмки фильма! Актёры забывают слова, сбивается фокус, ломается аппаратура, у оператора несварение желудка — со всем этим приходится бороться режиссёру фильма Нику. Тогда как мужскую половину съёмочной группы интересует только один вопрос: когда, наконец, будут снимать «обнажёнку»?..

Один из культовых фильмов думающей молодёжи середины 90-х "Жизнь в забвении" иллюстрирует фрагмент процесса съёмок одноимённого малобюджетного фильма. Фильм сам по себе представляет собой идеальный образчик независимого кино и рассчитан на публику, умеющую ценить подобное искусство. Интересно, что в 1-й половине фильма сей трудовой процесс представлен в чёрно-белом исполнении, как если бы мы смотрели реальный документальный фильм о съёмках, а снимаемый материал - в цветном, что позволяет нам таким образом смотреть фильм в фильме.



Страна: США
Студия: JDI Productions, Lemon Sky Productions
Продолжительность: 01:30:05
Перевод: Профессиональный (двухголосый, закадровый)
Субтитры: Russian, English

Файл
Формат: Matroska
Качество: HDRip-AVC
Видео: 704x380 at 23.976 fps, [email protected], ~1091 kbps, 0.170 bpp
Аудио: AAC, 2 ch, ~64 kbps - | Русский | -DVO (R5)
Формат субтитров: softsub (SRT)

***Релиз от:-=DoMiNo=-

M/I
x264 [info]: frame I:907 Avg QP:18.20 size: 34856
x264 [info]: frame P:27654 Avg QP:21.09 size: 11809
x264 [info]: frame B:101029 Avg QP:22.62 size: 3637
x264 [info]: consecutive B-frames: 1.2% 1.5% 5.3% 34.4% 15.1% 32.1% 4.9% 3.3% 1.3% 1.0%

General
Format : Matroska
Format version : Version 4
File size : 745 MiB
Duration : 1 h 30 min
Overall bit rate : 1 157 kb/s
Movie name : Жизнь в забвении.(1995).HDRip-AVC.[-=DoMiNo=-]
Encoded date : UTC 2020-07-04 09:59:48
Writing application : mkvmerge v48.0.0 ('Fortress Around Your Heart') 64-bit
Writing library : libebml v1.4.0 + libmatroska v1.6.0
Cover : Yes
Attachments : Cover.jpg

Video
ID : 1
Format : AVC
Format/Info : Advanced Video Codec
Format profile : [email protected]
Format settings : CABAC / 16 Ref Frames
Format settings, CABAC : Yes
Format settings, Reference : 16 frames
Codec ID : V_MPEG4/ISO/AVC
Duration : 1 h 30 min
Bit rate : 1 091 kb/s
Width : 704 pixels
Height : 380 pixels
Display aspect ratio : 1.85:1
Frame rate mode : Constant
Frame rate : 23.976 (24000/1001) FPS
Color space : YUV
Chroma subsampling : 4:2:0
Bit depth : 8 bits
Scan type : Progressive
Bits/(Pixel*Frame) : 0.170
Stream size : 702 MiB (94%)
Writing library : x264 core 161 r3015 4c2aafd
Encoding settings : cabac=1 / ref=16 / deblock=1:-3:-3 / analyse=0x3:0x133 / me=umh / subme=11 / psy=1 / psy_rd=1.00:0.00 / mixed_ref=1 / me_range=32 / chroma_me=1 / trellis=2 / 8x8dct=1 / cqm=0 / deadzone=21,11 / fast_pskip=0 / chroma_qp_offset=-2 / threads=6 / lookahead_threads=1 / sliced_threads=0 / nr=0 / decimate=0 / interlaced=0 / bluray_compat=0 / constrained_intra=0 / bframes=9 / b_pyramid=2 / b_adapt=2 / b_bias=0 / direct=3 / weightb=1 / open_gop=0 / weightp=2 / keyint=250 / keyint_min=23 / scenecut=40 / intra_refresh=0 / rc_lookahead=100 / rc=2pass / mbtree=1 / bitrate=1091 / ratetol=1.0 / qcomp=0.80 / qpmin=0 / qpmax=69 / qpstep=4 / cplxblur=20.0 / qblur=0.5 / vbv_maxrate=50000 / vbv_bufsize=62500 / nal_hrd=none / filler=0 / ip_ratio=1.40 / aq=1:1.00
Language : English
Default : Yes
Forced : No
Color range : Limited
Color primaries : BT.709
Transfer characteristics : BT.709
Matrix coefficients : BT.709

Audio
ID : 2
Format : AAC LC SBR
Format/Info : Advanced Audio Codec Low Complexity with Spectral Band Replication
Commercial name : HE-AAC
Format settings : Implicit
Codec ID : A_AAC-2
Duration : 1 h 30 min
Bit rate : 64.0 kb/s
Channel(s) : 2 channels
Channel layout : L R
Sampling rate : 48.0 kHz
Frame rate : 23.438 FPS (2048 SPF)
Compression mode : Lossy
Stream size : 41.2 MiB (6%)
Title : DVO_[R5]
Language : Russian
Default : Yes
Forced : No

Text #1
ID : 3
Format : UTF-8
Codec ID : S_TEXT/UTF8
Codec ID/Info : UTF-8 Plain Text
Duration : 1 h 27 min
Bit rate : 114 b/s
Count of elements : 1016
Stream size : 73.1 KiB (0%)
Title : R5
Language : Russian
Default : No
Forced : No

Text #2
ID : 4
Format : UTF-8
Codec ID : S_TEXT/UTF8
Codec ID/Info : UTF-8 Plain Text
Duration : 1 h 27 min
Bit rate : 146 b/s
Count of elements : 1392
Stream size : 93.8 KiB (0%)
Title : dezz
Language : Russian
Default : No
Forced : No

Text #3
ID : 5
Format : UTF-8
Codec ID : S_TEXT/UTF8
Codec ID/Info : UTF-8 Plain Text
Duration : 1 h 25 min
Bit rate : 89 b/s
Count of elements : 1601
Stream size : 56.2 KiB (0%)
Language : English
Default : No
Forced : No

Text #4
ID : 6
Format : UTF-8
Codec ID : S_TEXT/UTF8
Codec ID/Info : UTF-8 Plain Text
Duration : 1 h 25 min
Bit rate : 91 b/s
Count of elements : 1638
Stream size : 57.5 KiB (0%)
Title : SDH
Language : English
Default : No
Forced : No

Menu
00:00:00.000 : en:00:00:00.000
00:01:53.071 : en:00:01:53.071
00:03:46.101 : en:00:03:46.101
00:07:41.002 : en:00:07:41.002
00:12:31.876 : en:00:12:31.876
00:14:03.634 : en:00:14:03.634
00:16:26.694 : en:00:16:26.694
00:18:37.241 : en:00:18:37.241
00:27:18.178 : en:00:27:18.178
00:28:32.920 : en:00:28:32.920
00:30:06.513 : en:00:30:06.513
00:34:24.771 : en:00:34:24.771
00:39:45.133 : en:00:39:45.133
00:45:15.546 : en:00:45:15.546
00:46:22.738 : en:00:46:22.738
00:48:27.488 : en:00:48:27.488
00:49:37.600 : en:00:49:37.600
00:51:56.989 : en:00:51:56.989
00:54:10.873 : en:00:54:10.873
00:58:56.700 : en:00:58:56.700
01:03:53.997 : en:01:03:53.997
01:05:12.617 : en:01:05:12.617
01:08:40.074 : en:01:08:40.074
01:10:50.329 : en:01:10:50.329
01:13:39.749 : en:01:13:39.749
01:16:00.806 : en:01:16:00.806
01:20:24.570 : en:01:20:24.570
01:22:44.751 : en:01:22:44.751
Скриншоты
 

Вложения

  • 30,2 KB Просмотры: 0
    Личеров 0
    Сидеров 0
    Файлов 1
    Объем 745,3 MB

Привет!

Мы группа людей которые решили помочь другим в решении их проблем, а так же пользователям с поиском самых свежих и качественных инфопродуктов. За 4 с небольшим месяца мы создали этот форум на который заходят ежедневно тысячи человек и посещаемость постоянно растёт. Мы создали панель лицензирования для защиты PHP скриптов от воровства и SEO панель для мониторинга наших сайтов и выбора верной стратегии их развития. Мы надеемся что то что мы создали пригодится Вам и возможно Вы поможете нам развиваться и совершенствоваться вместе с Вами.

Статистика форума

Темы
406.657
Сообщения
465.111
Пользователи
84.664
Новый пользователь
nastsiqq12

Приложения форума для iOS и Android


У ркн там нет власти ;)
Приватные разговоры
Помощь Пользователи
    Вы не присоединились ни к одной комнате.