За последнюю неделю опубликовано 65 новых материалов.
Инструкция новичку Путеводитель по форуму Прокси для Telegram Показать подсказки , это бомба!

Скачать Жизнь на перемотке / Play (2019) WEB-DL 1080p | iTunes бесплатно через торрент

  • Поучаствуй (в качестве покупателя) в любых пяти совместных покупках (кроме завершённых и "Моментальных") и получи группу "Новичок" навсегда -> ссылка на раздел
  • Получай до 480 рублей за каждого приглашенного пользователя!
    представляем Вам очередное расширение партнерской программы, подробности описаны тут -> ссылка
  • 90% материалов доступно к скачиванию после простой регистрации!
    Если же ты хочешь скачивать материалы без требования оставлять отзывы то получи группу "Новичок", 10 способов повышения описаны тут -> ссылка
  • К сожалению количество битых ссылок растет и мы уже не можем их оперативно восстанавливать поэтому просим помощи у каждого нашего пользователя.
    С сегодняшнего дня, за каждую восстановленную ссылку мы заплатим Вам.
    Подробнее тут -> ссылка
  • Перенесем твои заслуги с другого ресурса!
    Мы понимаем как сложно прокачивать аккаунты на форумах, вроде раскачал аккаунт, а тут появляется ресурс в 100 раз круче но тоже с системой прокачки и снова качать аккаунт...
    Предлагаем вам перенести Ваши заслуги на другом подобном ресурсе к нам.
    Подробности описаны тут -> ссылка
  • Вы можете получать по 2.5% с каждой покупки и продажи на маркете! Подробности в теме Партнёрская программа
Если Вы не хотите скачивать, Вы всегда можетепосмотретьонлайн, просто нажмите кнопку ниже :

Открыть плеер

Torrent_Bot

Торрент-Бот
Бот форума
4 Окт 2016
92
163
20


Информация о фильме
Название: Жизнь на перемотке
Оригинальное название: Play
Год выхода: 2019
Цифровой релиз (в России): 15 июня 2020
Жанр: мелодрама, комедия
Режиссер: Антони Марсьяно
В ролях: Макс Бублиль, Алис Исааз, Малик Зиди, Артур Перье, Ноэми Львовски, Ален Шаба, Камилль Лу, Александр Десрусу, Габриэль Кабальеро, Габриэль Брюне

О фильме:
Что если можно было бы отмотать свою жизнь на 25 лет назад, заново пережить все самые яркие события и получить заряд ностальгии? Когда Максу в 13 лет подарили его первую видеокамеру, он не мог представить, что это положит начало невероятно трогательной, смешной и такой знакомой всем нам хронике от 90-х до 2010-х.


Страна: Франция
Продолжительность: 01:47:53
Перевод: Дублированный | iTunes

Файл
Формат: MKV
Кодек: MPEG-4 AVC
Качество: WEB-DL 1080p
Видео: 1920x1080, ~ 5 129 kb/s, 8 bits, 24.000 FPS
Аудио #1 (русский): AC-3, 384 kb/s, 6 ch (L R C LFE Ls Rs), 48.0 kHz
Аудио #2 (французский): AC-3, 384 kb/s, 6 ch (L R C LFE Ls Rs), 48.0 kHz
Субтитры: русские (в составе контейнера, отключаемые, UTF-8), русские (отдельно, SRT, UTF-8)
Навигация по главам: есть





Скриншоты


MediaInfo
General
Unique ID : 115670815623760624754611440803528827458 (0x57056385213AA335E18C9069D20BE242)
Complete name : [KORSARS]_Play.WEBDL.1080p.iTunes.mkv
Format : Matroska
Format version : Version 4
File size : 4.45 GiB
Duration : 1 h 47 min
Overall bit rate : 5 899 kb/s
Movie name : [KORSARS]_Play.WEBDL.1080p.iTunes
Encoded date : UTC 2020-06-15 18:31:38
Writing application : mkvmerge v47.0.0 ('Black Flag') 64-bit
Writing library : libebml v1.3.10 + libmatroska v1.5.2

Video
ID : 1
Format : AVC
Format/Info : Advanced Video Codec
Format profile : [email protected]
Format settings : CABAC / 4 Ref Frames
Format settings, CABAC : Yes
Format settings, Reference : 4 frames
Codec ID : V_MPEG4/ISO/AVC
Duration : 1 h 47 min
Bit rate : 5 129 kb/s
Width : 1 920 pixels
Height : 1 080 pixels
Display aspect ratio : 16:9
Frame rate mode : Constant
Frame rate : 24.000 FPS
Color space : YUV
Chroma subsampling : 4:2:0
Bit depth : 8 bits
Scan type : Progressive
Bits/(Pixel*Frame) : 0.103
Stream size : 3.86 GiB (87%)
Title : [KORSARS]_Play.WEBDL.1080p.iTunes
Language : English
Default : Yes
Forced : No
Color range : Limited
Color primaries : BT.709
Transfer characteristics : BT.709
Matrix coefficients : BT.709

Audio #1
ID : 2
Format : AC-3
Format/Info : Audio Coding 3
Commercial name : Dolby Digital
Codec ID : A_AC3
Duration : 1 h 47 min
Bit rate mode : Constant
Bit rate : 384 kb/s
Channel(s) : 6 channels
Channel layout : L R C LFE Ls Rs
Sampling rate : 48.0 kHz
Frame rate : 31.250 FPS (1536 SPF)
Compression mode : Lossy
Delay relative to video : -42 ms
Stream size : 296 MiB (7%)
Language : Russian
Service kind : Complete Main
Default : Yes
Forced : No

Audio #2
ID : 3
Format : AC-3
Format/Info : Audio Coding 3
Commercial name : Dolby Digital
Codec ID : A_AC3
Duration : 1 h 47 min
Bit rate mode : Constant
Bit rate : 384 kb/s
Channel(s) : 6 channels
Channel layout : L R C LFE Ls Rs
Sampling rate : 48.0 kHz
Frame rate : 31.250 FPS (1536 SPF)
Compression mode : Lossy
Delay relative to video : -42 ms
Stream size : 296 MiB (7%)
Language : French
Service kind : Complete Main
Default : No
Forced : No

Text
ID : 4
Format : UTF-8
Codec ID : S_TEXT/UTF8
Codec ID/Info : UTF-8 Plain Text
Duration : 1 h 43 min
Bit rate : 103 b/s
Count of elements : 2031
Stream size : 79.1 KiB (0%)
Language : Russian
Default : Yes
Forced : No

Menu
00:00:00.000 : ru:Глава 1
00:08:22.416 : ru:Глава 2
00:16:27.915 : ru:Глава 3
00:24:50.290 : ru:Глава 4
00:33:13.080 : ru:Глава 5
00:41:24.496 : ru:Глава 6
00:49:39.412 : ru:Глава 7
00:58:08.870 : ru:Глава 8
01:06:46.328 : ru:Глава 9
01:14:53.202 : ru:Глава 10
01:23:15.327 : ru:Глава 11
01:31:46.993 : ru:Глава 12
01:39:18.868 : ru:Глава 13


 

Вложения

  • 12,2 KB Просмотры: 0
    Личеров 0
    Сидеров 0
    Файлов 2
    Объем 4,4 GB

Привет!

Мы группа людей которые решили помочь другим в решении их проблем, а так же пользователям с поиском самых свежих и качественных инфопродуктов. За 4 с небольшим месяца мы создали этот форум на который заходят ежедневно тысячи человек и посещаемость постоянно растёт. Мы создали панель лицензирования для защиты PHP скриптов от воровства и SEO панель для мониторинга наших сайтов и выбора верной стратегии их развития. Мы надеемся что то что мы создали пригодится Вам и возможно Вы поможете нам развиваться и совершенствоваться вместе с Вами.

Статистика форума

Темы
406.671
Сообщения
465.116
Пользователи
84.730
Новый пользователь
Станислав788

Приложения форума для iOS и Android


У ркн там нет власти ;)
Приватные разговоры
Помощь Пользователи
    Вы не присоединились ни к одной комнате.