За последнюю неделю опубликовано 53 новых материалов.
Инструкция новичку Путеводитель по форуму Прокси для Telegram Показать подсказки , это бомба!

Скачать Живая плоть / Carne trémula (1997) BDRip-AVC от Rulya74 бесплатно через торрент

  • Поучаствуй (в качестве покупателя) в любых пяти совместных покупках (кроме завершённых и "Моментальных") и получи группу "Новичок" навсегда -> ссылка на раздел
  • Получай до 480 рублей за каждого приглашенного пользователя!
    представляем Вам очередное расширение партнерской программы, подробности описаны тут -> ссылка
  • 90% материалов доступно к скачиванию после простой регистрации!
    Если же ты хочешь скачивать материалы без требования оставлять отзывы то получи группу "Новичок", 10 способов повышения описаны тут -> ссылка
  • К сожалению количество битых ссылок растет и мы уже не можем их оперативно восстанавливать поэтому просим помощи у каждого нашего пользователя.
    С сегодняшнего дня, за каждую восстановленную ссылку мы заплатим Вам.
    Подробнее тут -> ссылка
  • Перенесем твои заслуги с другого ресурса!
    Мы понимаем как сложно прокачивать аккаунты на форумах, вроде раскачал аккаунт, а тут появляется ресурс в 100 раз круче но тоже с системой прокачки и снова качать аккаунт...
    Предлагаем вам перенести Ваши заслуги на другом подобном ресурсе к нам.
    Подробности описаны тут -> ссылка
  • Вы можете получать по 2.5% с каждой покупки и продажи на маркете! Подробности в теме Партнёрская программа
Если Вы не хотите скачивать, Вы всегда можетепосмотретьонлайн, просто нажмите кнопку ниже :

Открыть плеер

Torrent_Bot

Торрент-Бот
Бот форума
4 Окт 2016
91
163
20

Живая плоть / Carne trémula (1997) BDRip-AVC


Информация о фильме
Название: Живая плоть
Оригинальное название: Carne trémula
Год выхода: 1997
Жанр: драма
Режиссер: Педро Альмодовар

В ролях: Хавьер Бардем, Франческа Нери, Либерто Рабаль, Анхела Молина, Хосе Санчо, Пенелопа Крус, Пилар Бардем, Алекс Ангуло, Мариола Фуэнтес, Яэль Бе...

О фильме: Фильм снят по одноименному роману популярной английской писательницы Рут Рэнделл. Главный герой картины, Виктор, из-за ссоры со своей подружкой Еленой, случайно ранит полицейского.

Через 4 года, проведенных в тюрьме он узнает, что тот самый полицейский стал известным баскетболистом, кумиром и героем зрителей с баснословными контрактами да еще и женился на его бывшей подружке Елене.



Страна: Испания, Франция
Продолжительность: 01:40:52
Перевод: Профессиональный (двухголосый закадровый) CP-Digital, Профессиональный (двухголосый закадровый) Видеоимпульс, Профессиональный (двухголосый закадровый) R7, Оригинал (Испанский)

Файл
Кодек: x264
Качество: BDRip-AVC
Видео: 1024x436 (2,35:1 ), 24 fps, 1887 kbps, 0.176 bit/pixel
Аудио #1: 48 kHz, AC3 Dolby Digital, 6 ch, ~384.00 kbps | CP-Digital
Аудио #2: 48 kHz, AC3 Dolby Digital, 6 ch, ~384.00 kbps | Видеоимпульс
Аудио #3: 48 kHz, AC3 Dolby Digital, 6 ch, ~320.00 kbps | R7
Аудио #4: 48 kHz, AC3 Dolby Digital, 6 ch, ~256.00 kbps | Оригинал

&

MediaIfo
Общее
Уникальный идентификатор : 190121754402500455779179468832365188224 (0x8F081E347B8C9CF585F7DA9E110D9480)
Полное имя : D:DownloadLive Flesh.1997.BDRip-AVC.PT.mkv
Формат : Matroska
Версия формата : Version 2
Размер файла : 2,18 Гбайт
Продолжительность : 1 ч. 40 м.
Общий поток : 3101 Кбит/сек
Название фильма : Живая плоть / Carne trémula / Live Flesh (1997) BDRip-AVC rip by rulya74
Дата кодирования : UTC 2012-01-27 17:52:07
Программа кодирования : mkvmerge v4.9.1 ('Ich will') сборка от Jul 11 2011 23:53:15
Библиотека кодирования : libebml v1.2.1 + libmatroska v1.1.1

Видео
Идентификатор : 1
Формат : AVC
Формат/Информация : Advanced Video Codec
Профиль формата : [email protected]
Параметр CABAC формата : Да
Параметр ReFrames формата : 10 кадров
Идентификатор кодека : V_MPEG4/ISO/AVC
Продолжительность : 1 ч. 40 м.
Битрейт : 1887 Кбит/сек
Ширина : 1024 пикселя
Высота : 436 пикселей
Соотношение сторон : 2,35:1
Режим частоты кадров : Постоянный
Частота кадров : 24,000 кадра/сек
Цветовое пространство : YUV
Субдискретизация насыщенности : 4:2:0
Битовая глубина : 8 бит
Тип развёртки : Прогрессивная
Бит/(Пиксели*Кадры) : 0.176
Размер потока : 1,28 Гбайт (59%)
Библиотека кодирования : x264 core 116 r2074 2641b9e
Настройки программы : cabac=1 / ref=10 / deblock=1:-3:-2 / analyse=0x3:0x113 / me=umh / subme=9 / psy=1 / psy_rd=1.00:0.00 / mixed_ref=1 / me_range=32 / chroma_me=1 / trellis=2 / 8x8dct=1 / cqm=0 / deadzone=21,11 / fast_pskip=1 / chroma_qp_offset=-2 / threads=3 / sliced_threads=0 / nr=0 / decimate=1 / interlaced=0 / bluray_compat=0 / constrained_intra=0 / bframes=9 / b_pyramid=2 / b_adapt=1 / b_bias=0 / direct=3 / weightb=1 / open_gop=0 / weightp=2 / keyint=250 / keyint_min=24 / scenecut=40 / intra_refresh=0 / rc=2pass / mbtree=0 / bitrate=1887 / ratetol=1.0 / qcomp=0.60 / qpmin=10 / qpmax=51 / qpstep=4 / cplxblur=20.0 / qblur=0.5 / ip_ratio=1.40 / pb_ratio=1.30 / aq=1:1.00
Default : Да
Forced : Нет

Аудио #1
Идентификатор : 2
Формат : AC-3
Формат/Информация : Audio Coding 3
Расширение режима : CM (complete main)
Параметр Endianness формата : Big
Идентификатор кодека : A_AC3
Продолжительность : 1 ч. 40 м.
Вид битрейта : Постоянный
Битрейт : 256 Кбит/сек
Каналы : 2 канала
Расположение каналов : Front: L R
Частота : 48,0 КГц
Битовая глубина : 16 бит
Метод сжатия : С потерями
Размер потока : 185 Мбайт (8%)
Заголовок : Двухголосый закадровый, CP-Digital [R5]
Язык : Russian
Default : Да
Forced : Нет

Аудио #2
Идентификатор : 3
Формат : AC-3
Формат/Информация : Audio Coding 3
Расширение режима : CM (complete main)
Параметр Endianness формата : Big
Идентификатор кодека : A_AC3
Продолжительность : 1 ч. 40 м.
Вид битрейта : Постоянный
Битрейт : 384 Кбит/сек
Каналы : 6 каналов
Расположение каналов : Front: L C R, Side: L R, LFE
Частота : 48,0 КГц
Битовая глубина : 16 бит
Метод сжатия : С потерями
Размер потока : 277 Мбайт (12%)
Заголовок : Двухголосый закадровый, Видеоимпульс [R5]
Default : Нет
Forced : Нет

Аудио #3
Идентификатор : 4
Формат : AC-3
Формат/Информация : Audio Coding 3
Расширение режима : CM (complete main)
Параметр Endianness формата : Big
Идентификатор кодека : A_AC3
Продолжительность : 1 ч. 40 м.
Вид битрейта : Постоянный
Битрейт : 320 Кбит/сек
Каналы : 6 каналов
Расположение каналов : Front: L C R, Side: L R, LFE
Частота : 48,0 КГц
Битовая глубина : 16 бит
Метод сжатия : С потерями
Размер потока : 231 Мбайт (10%)
Заголовок : Двухголосый закадровый, [R7]
Default : Нет
Forced : Нет

Аудио #4
Идентификатор : 5
Формат : AC-3
Формат/Информация : Audio Coding 3
Расширение режима : CM (complete main)
Параметр Endianness формата : Big
Идентификатор кодека : A_AC3
Продолжительность : 1 ч. 40 м.
Вид битрейта : Постоянный
Битрейт : 256 Кбит/сек
Каналы : 2 канала
Расположение каналов : Front: L R
Частота : 48,0 КГц
Битовая глубина : 16 бит
Метод сжатия : С потерями
Размер потока : 185 Мбайт (8%)
Заголовок : Original
Язык : Spanish
Default : Нет
Forced : Нет
Скриншоты

 

Вложения

  • 11,9 KB Просмотры: 1
    Личеров 0
    Сидеров 0
    Файлов 1
    Объем 2,2 GB

Привет!

Мы группа людей которые решили помочь другим в решении их проблем, а так же пользователям с поиском самых свежих и качественных инфопродуктов. За 4 с небольшим месяца мы создали этот форум на который заходят ежедневно тысячи человек и посещаемость постоянно растёт. Мы создали панель лицензирования для защиты PHP скриптов от воровства и SEO панель для мониторинга наших сайтов и выбора верной стратегии их развития. Мы надеемся что то что мы создали пригодится Вам и возможно Вы поможете нам развиваться и совершенствоваться вместе с Вами.

Статистика форума

Темы
410.538
Сообщения
469.078
Пользователи
86.036
Новый пользователь
wessd

Приложения форума для iOS и Android


У ркн там нет власти ;)
Приватные разговоры
Помощь Пользователи
    Вы не присоединились ни к одной комнате.