За последнюю неделю опубликовано 63 новых материалов.
Инструкция новичку Путеводитель по форуму Прокси для Telegram Показать подсказки , это бомба!

Скачать Женщины-каннибалы в смертельных джунглях авокадо / Cannibal Women in the Avocado Jungle of Death (1989) BDRip-AVC от ExKinoRay | A бесплатно через торрент

  • Поучаствуй (в качестве покупателя) в любых пяти совместных покупках (кроме завершённых и "Моментальных") и получи группу "Новичок" навсегда -> ссылка на раздел
  • Получай до 480 рублей за каждого приглашенного пользователя!
    представляем Вам очередное расширение партнерской программы, подробности описаны тут -> ссылка
  • 90% материалов доступно к скачиванию после простой регистрации!
    Если же ты хочешь скачивать материалы без требования оставлять отзывы то получи группу "Новичок", 10 способов повышения описаны тут -> ссылка
  • К сожалению количество битых ссылок растет и мы уже не можем их оперативно восстанавливать поэтому просим помощи у каждого нашего пользователя.
    С сегодняшнего дня, за каждую восстановленную ссылку мы заплатим Вам.
    Подробнее тут -> ссылка
  • Перенесем твои заслуги с другого ресурса!
    Мы понимаем как сложно прокачивать аккаунты на форумах, вроде раскачал аккаунт, а тут появляется ресурс в 100 раз круче но тоже с системой прокачки и снова качать аккаунт...
    Предлагаем вам перенести Ваши заслуги на другом подобном ресурсе к нам.
    Подробности описаны тут -> ссылка
  • Вы можете получать по 2.5% с каждой покупки и продажи на маркете! Подробности в теме Партнёрская программа
Если Вы не хотите скачивать, Вы всегда можетепосмотретьонлайн, просто нажмите кнопку ниже :

Открыть плеер

Torrent_Bot

Торрент-Бот
Бот форума
4 Окт 2016
92
160
20


Информация о фильме
Название: Женщины-каннибалы в смертельных джунглях авокадо
Оригинальное название: Cannibal Women in the Avocado Jungle of Death
Год выхода: 1989
Жанр: Боевик, комедия, приключения, ужасы
Режиссер: Дж.Ф. Лоутон
В ролях: Шэннон Твид, Билл Маар, Карен Мистал, Эдриенн Барбо, Бретт Стаймли, Барри Праймус, Джим МакКрелл, Пол Росс, Вики Варнер, Алан Дэвид Гельман

О фильме:
В джунглях начали пропадать мужчины. Пентагон крайне заволновался, и поэтому отправил на разведку свои лучшие войска, зелёные береты. Вот только когда третий батальон оказался в числе пропавших без вести, тогда высшие армейские чины начали понимать, дело принимает опасный оборот. И тогда решено было послать туда антрополога. Версия подобной пропажи существовала только одна. Дело в том, что известно о поселении в месте Х, о племени женщин, поведение которых сродни самкам паукам, сразу же после полового акта они умерщвляли своего партнёра. Неужели пропавших мужчин постигла такая же участь?




Страна: США
Студия: Beyond Infinity, Gaucamolle Pictures, Phantom Productions
Продолжительность: 01:29:31
Перевод : Авторский (одноголосый закадровый) Андрей Дольский

Файл
Формат: MKV
Качество: BDRip-AVC
Видео: MPEG-4 AVC, 768x432, - 1087 Кбит/с
Аудио: AAC-HE, 2 ch, - 76 Кбит/с
Субтитры: Нет

MI
Общее
Уникальный идентификатор : 267516171319090822300775265548165859811 (0xC941BD9116AE3D6964E5888A05F649E3)
Полное имя : D:MOVIESCannibal.women.1989.BDRip-AVC.ExKinoRay.mkv
Формат : Matroska
Версия формата : Version 4
Размер файла : 745 Мбайт
Продолжительность : 1 ч. 29 м.
Общий поток : 1 164 Кбит/сек
Дата кодирования : UTC 2020-08-19 18:16:10
Программа кодирования : mkvmerge v45.0.0 ('Heaven in Pennies') 64-bit
Библиотека кодирования : libebml v1.3.10 + libmatroska v1.5.2

Видео
Идентификатор : 1
Формат : AVC
Формат/Информация : Advanced Video Codec
Профиль формата : [email protected]
Настройки формата : CABAC / 12 Ref Frames
Параметр CABAC формата : Да
Параметр RefFrames формата : 12 кадров
Идентификатор кодека : V_MPEG4/ISO/AVC
Продолжительность : 1 ч. 29 м.
Битрейт : 1 087 Кбит/сек
Ширина : 768 пикселей
Высота : 432 пикселя
Соотношение сторон : 16:9
Режим частоты кадров : Постоянный
Частота кадров : 23,976 (24000/1001) кадра/сек
Цветовое пространство : YUV
Субдискретизация насыщенности : 4:2:0
Битовая глубина : 8 бит
Тип развёртки : Прогрессивная
Бит/(Пиксели*Кадры) : 0.137
Размер потока : 696 Мбайт (93%)
Библиотека кодирования : x264 core 160 r3000 33f9e14
Настройки программы : cabac=1 / ref=12 / deblock=1:-3:-2 / analyse=0x3:0x133 / me=umh / subme=10 / psy=1 / psy_rd=1.05:0.12 / mixed_ref=1 / me_range=32 / chroma_me=1 / trellis=2 / 8x8dct=1 / cqm=0 / deadzone=21,11 / fast_pskip=0 / chroma_qp_offset=-3 / threads=6 / lookahead_threads=1 / sliced_threads=0 / nr=0 / decimate=0 / interlaced=0 / bluray_compat=0 / constrained_intra=0 / bframes=11 / b_pyramid=2 / b_adapt=2 / b_bias=0 / direct=3 / weightb=1 / open_gop=0 / weightp=2 / keyint=240 / keyint_min=23 / scenecut=40 / intra_refresh=0 / rc=2pass / mbtree=0 / bitrate=1087 / ratetol=1.0 / qcomp=0.60 / qpmin=0 / qpmax=69 / qpstep=4 / cplxblur=20.0 / qblur=0.5 / ip_ratio=1.40 / pb_ratio=1.30 / aq=3:1.00
Default : Да
Forced : Нет
Цветовой диапазон : Limited
Основные цвета : BT.709
Характеристики трансфера : BT.709
Коэффициенты матрицы : BT.709

Аудио
Идентификатор : 2
Формат : AAC LC SBR
Формат/Информация : Advanced Audio Codec Low Complexity with Spectral Band Replication
Коммерческое название : HE-AAC
Настройки формата : Explicit
Идентификатор кодека : A_AAC-2
Продолжительность : 1 ч. 29 м.
Битрейт : 76,0 Кбит/сек
Каналы : 2 канала
Channel layout : L R
Частота : 48,0 КГц
Частота кадров : 23,438 кадра/сек (2048 SPF)
Метод сжатия : С потерями
Задержка видео : 31 мс.
Размер потока : 48,7 Мбайт (7%)
Язык : Russian
Default : Да
Forced : Нет

Меню
00:00:00.000 : en:00:00:00.000
00:06:19.838 : en:00:06:19.838
00:15:56.581 : en:00:15:56.581
00:25:08.966 : en:00:25:08.966
00:36:20.303 : en:00:36:20.303
00:48:46.715 : en:00:48:46.715
01:04:48.843 : en:01:04:48.843
01:21:08.447 : en:01:21:08.447
Скриншоты

 

Вложения

  • 15,7 KB Просмотры: 0
    Личеров 0
    Сидеров 0
    Файлов 1
    Объем 745,4 MB

Привет!

Мы группа людей которые решили помочь другим в решении их проблем, а так же пользователям с поиском самых свежих и качественных инфопродуктов. За 4 с небольшим месяца мы создали этот форум на который заходят ежедневно тысячи человек и посещаемость постоянно растёт. Мы создали панель лицензирования для защиты PHP скриптов от воровства и SEO панель для мониторинга наших сайтов и выбора верной стратегии их развития. Мы надеемся что то что мы создали пригодится Вам и возможно Вы поможете нам развиваться и совершенствоваться вместе с Вами.

Статистика форума

Темы
406.656
Сообщения
465.106
Пользователи
84.674
Новый пользователь
Юрий 1990

Приложения форума для iOS и Android


У ркн там нет власти ;)
Приватные разговоры
Помощь Пользователи
    Вы не присоединились ни к одной комнате.