За последнюю неделю опубликовано 62 новых материалов.
Инструкция новичку Путеводитель по форуму Прокси для Telegram Показать подсказки , это бомба!

Скачать Женщины-каннибалы в смертельных джунглях авокадо / Cannibal Women in the Avocado Jungle of Death (1989) BDRip-AVC | A бесплатно через торрент

  • Поучаствуй (в качестве покупателя) в любых пяти совместных покупках (кроме завершённых и "Моментальных") и получи группу "Новичок" навсегда -> ссылка на раздел
  • Получай до 480 рублей за каждого приглашенного пользователя!
    представляем Вам очередное расширение партнерской программы, подробности описаны тут -> ссылка
  • 90% материалов доступно к скачиванию после простой регистрации!
    Если же ты хочешь скачивать материалы без требования оставлять отзывы то получи группу "Новичок", 10 способов повышения описаны тут -> ссылка
  • К сожалению количество битых ссылок растет и мы уже не можем их оперативно восстанавливать поэтому просим помощи у каждого нашего пользователя.
    С сегодняшнего дня, за каждую восстановленную ссылку мы заплатим Вам.
    Подробнее тут -> ссылка
  • Перенесем твои заслуги с другого ресурса!
    Мы понимаем как сложно прокачивать аккаунты на форумах, вроде раскачал аккаунт, а тут появляется ресурс в 100 раз круче но тоже с системой прокачки и снова качать аккаунт...
    Предлагаем вам перенести Ваши заслуги на другом подобном ресурсе к нам.
    Подробности описаны тут -> ссылка
  • Вы можете получать по 2.5% с каждой покупки и продажи на маркете! Подробности в теме Партнёрская программа
Если Вы не хотите скачивать, Вы всегда можетепосмотретьонлайн, просто нажмите кнопку ниже :

Открыть плеер

Torrent_Bot

Торрент-Бот
Бот форума
4 Окт 2016
92
160
20



Информация о фильме
Название: Женщины-каннибалы в смертельных джунглях авокадо
Оригинальное название: Cannibal Women in the Avocado Jungle of Death
Год выхода: 1989
Жанр: Боевик, комедия, приключения, ужасы
Режиссер: Дж.Ф. Лоутон
В ролях: Шэннон Твид, Билл Маар, Карен Мистал, Эдриенн Барбо, Бретт Стаймли, Барри Праймус, Джим МакКрелл, Пол Росс, Вики Варнер, Алан Дэвид Гельман

О фильме:
В джунглях начали пропадать мужчины. Пентагон крайне заволновался, и поэтому отправил на разведку свои лучшие войска, зелёные береты. Вот только когда третий батальон оказался в числе пропавших без вести, тогда высшие армейские чины начали понимать, дело принимает опасный оборот. И тогда решено было послать туда антрополога. Версия подобной пропажи существовала только одна. Дело в том, что известно о поселении в месте Х, о племени женщин, поведение которых сродни самкам паукам, сразу же после полового акта они умерщвляли своего партнёра. Неужели пропавших мужчин постигла такая же участь?



Страна: США
Студия: Beyond Infinity, Gaucamolle Pictures, Phantom Productions
Продолжительность: 01:29:31
Перевод: Андрей Дольский- авторский одноголосый закадровый.

Файл
Кодек: x264
Качество: BDRip-AVC
Видео: MPEG-4 AVC, 1024x576, 23.976 fps, 4913 Kbps, 0.347 bit/pixel
Звук:
48 kHz, AC3, 2 ch, 192 Kbps | AVO ( Андрей Дольский ) | RUS
48 kHz, AC3, 2 ch, 192 Kbps | Original | EN
Субтитры: Английские

MediaInfo + x264:
x264 [info]: frame I:851 Avg QP:16.71 size: 98038
x264 [info]: frame P:24208 Avg QP:18.13 size: 41930
x264 [info]: frame B:103727 Avg QP:20.50 size: 21213

General
Unique ID : 185268788209984601206035892844168564239 (0x8B61787F9FDC36CFA9E577A39ABD4E0F)
Complete name : Cannibal Women in the Avocado Jungle of Death_(1989)_BDRip-AVC.mkv
Format : Matroska
Format version : Version 4
File size : 3.31 GiB
Duration : 1 h 29 min
Overall bit rate : 5 298 kb/s
Movie name : Cannibal Women in the Avocado Jungle of Death
Encoded date : UTC 2020-08-29 15:17:43
Writing application : mkvmerge v8.3.0 ('Over the Horizon') 64bit
Writing library : libebml v1.3.1 + libmatroska v1.4.2
Cover : Yes
Attachments : cover.jpg

Video
ID : 1
Format : AVC
Format/Info : Advanced Video Codec
Format profile : [email protected]
Format settings : CABAC / 10 Ref Frames
Format settings, CABAC : Yes
Format settings, Reference : 10 frames
Codec ID : V_MPEG4/ISO/AVC
Duration : 1 h 29 min
Bit rate : 4 913 kb/s
Width : 1 024 pixels
Height : 576 pixels
Display aspect ratio : 16:9
Frame rate mode : Constant
Frame rate : 23.976 (24000/1001) FPS
Color space : YUV
Chroma subsampling : 4:2:0
Bit depth : 8 bits
Scan type : Progressive
Bits/(Pixel*Frame) : 0.347
Stream size : 3.07 GiB (93%)
Title : Cannibal Women in the Avocado Jungle of Death
Writing library : x264 core 160 r3000+53 e3e4c3e t_mod_New [(8 & 10)[email protected] X86_64]
Encoding settings : cabac=1 / ref=10 / deblock=1:-2:-1 / analyse=0x3:0x133 / me=umh / subme=11 / psy=1 / fade_compensate=0.00 / psy_rd=1.00:0.12 / mixed_ref=1 / me_range=32 / chroma_me=1 / trellis=2 / 8x8dct=1 / cqm=0 / deadzone=21,11 / fast_pskip=0 / chroma_qp_offset=-3 / threads=12 / lookahead_threads=2 / sliced_threads=0 / nr=0 / decimate=1 / interlaced=0 / bluray_compat=0 / constrained_intra=0 / fgo=0 / bframes=8 / b_pyramid=2 / b_adapt=2 / b_bias=0 / direct=1 / weightb=1 / open_gop=0 / weightp=2 / keyint=240 / keyint_min=23 / scenecut=40 / intra_refresh=0 / rc_lookahead=60 / rc=crf / mbtree=0 / crf=17.0000 / qcomp=0.60 / qpmin=0:0:0 / qpmax=69:69:69 / qpstep=4 / vbv_maxrate=50000 / vbv_bufsize=62500 / crf_max=0.0 / nal_hrd=none / filler=0 / ip_ratio=1.40 / pb_ratio=1.30 / aq=2:0.80 / aq-sensitivity=10.00 / aq-factor=1.00:1.00:1.00 / aq2=0 / aq3=0
Default : Yes
Forced : No

Audio #1
ID : 2
Format : AC-3
Format/Info : Audio Coding 3
Commercial name : Dolby Digital
Codec ID : A_AC3
Duration : 1 h 29 min
Bit rate mode : Constant
Bit rate : 192 kb/s
Channel(s) : 2 channels
Channel layout : L R
Sampling rate : 48.0 kHz
Frame rate : 31.250 FPS (1536 SPF)
Compression mode : Lossy
Stream size : 123 MiB (4%)
Title : AVO ( Андрей Дольский )
Language : Russian
Service kind : Complete Main
Default : Yes
Forced : No

Audio #2
ID : 3
Format : AC-3
Format/Info : Audio Coding 3
Commercial name : Dolby Digital
Codec ID : A_AC3
Duration : 1 h 29 min
Bit rate mode : Constant
Bit rate : 192 kb/s
Channel(s) : 2 channels
Channel layout : L R
Sampling rate : 48.0 kHz
Frame rate : 31.250 FPS (1536 SPF)
Compression mode : Lossy
Stream size : 123 MiB (4%)
Title : Original
Language : English
Service kind : Complete Main
Default : No
Forced : No

Text
ID : 4
Format : UTF-8
Codec ID : S_TEXT/UTF8
Codec ID/Info : UTF-8 Plain Text
Duration : 1 h 23 min
Bit rate : 84 b/s
Count of elements : 1246
Stream size : 52.1 KiB (0%)
Title : Original
Language : English
Default : No
Forced : No

Menu
00:00:00.000 : en:00:00:00.000
00:06:19.838 : en:00:06:19.838
00:15:56.581 : en:00:15:56.581
00:25:08.966 : en:00:25:08.966
00:36:20.303 : en:00:36:20.303
00:48:46.715 : en:00:48:46.715
01:04:48.843 : en:01:04:48.843
01:21:08.447 : en:01:21:08.447
Скриншоты
 

Вложения

  • 17,6 KB Просмотры: 0
    Личеров 0
    Сидеров 0
    Файлов 1
    Объем 3,3 GB

Привет!

Мы группа людей которые решили помочь другим в решении их проблем, а так же пользователям с поиском самых свежих и качественных инфопродуктов. За 4 с небольшим месяца мы создали этот форум на который заходят ежедневно тысячи человек и посещаемость постоянно растёт. Мы создали панель лицензирования для защиты PHP скриптов от воровства и SEO панель для мониторинга наших сайтов и выбора верной стратегии их развития. Мы надеемся что то что мы создали пригодится Вам и возможно Вы поможете нам развиваться и совершенствоваться вместе с Вами.

Статистика форума

Темы
406.656
Сообщения
465.104
Пользователи
84.660
Новый пользователь
nic34

Приложения форума для iOS и Android


У ркн там нет власти ;)
Приватные разговоры
Помощь Пользователи
    Вы не присоединились ни к одной комнате.