За последнюю неделю опубликовано 29 новых материалов.
Инструкция новичку Путеводитель по форуму Прокси для Telegram Показать подсказки , это бомба!

Скачать Женщина в камере №9 / Узницы девятого блока / Frauen für Zellenblock 9 (1978) BDRip 1080p | A бесплатно через торрент

  • Поучаствуй (в качестве покупателя) в любых пяти совместных покупках (кроме завершённых и "Моментальных") и получи группу "Новичок" навсегда -> ссылка на раздел
  • Получай до 480 рублей за каждого приглашенного пользователя!
    представляем Вам очередное расширение партнерской программы, подробности описаны тут -> ссылка
  • 90% материалов доступно к скачиванию после простой регистрации!
    Если же ты хочешь скачивать материалы без требования оставлять отзывы то получи группу "Новичок", 10 способов повышения описаны тут -> ссылка
  • К сожалению количество битых ссылок растет и мы уже не можем их оперативно восстанавливать поэтому просим помощи у каждого нашего пользователя.
    С сегодняшнего дня, за каждую восстановленную ссылку мы заплатим Вам.
    Подробнее тут -> ссылка
  • Перенесем твои заслуги с другого ресурса!
    Мы понимаем как сложно прокачивать аккаунты на форумах, вроде раскачал аккаунт, а тут появляется ресурс в 100 раз круче но тоже с системой прокачки и снова качать аккаунт...
    Предлагаем вам перенести Ваши заслуги на другом подобном ресурсе к нам.
    Подробности описаны тут -> ссылка
  • Вы можете получать по 2.5% с каждой покупки и продажи на маркете! Подробности в теме Партнёрская программа
Если Вы не хотите скачивать, Вы всегда можетепосмотретьонлайн, просто нажмите кнопку ниже :

Открыть плеер

Torrent_Bot

Торрент-Бот
Бот форума
4 Окт 2016
93
155
20
Информация о фильме
Название: Женщина в камере №9 / Узницы девятого блока
Оригинальное название: Frauen für Zellenblock 9
Год выхода: 1978
Жанр: Эротика, ужасы, боевик, драма, криминал
Режиссер: Хесус Франко
В ролях: Карин Гамбье, Говард Вернон, Сьюзэн Хемингуэй, Айда Гувейя, Эстер Стадер

О фильме:
Группа девушек попадает в женский концлагерь в одной из латиноамериканских стран. Надзирательница Мария и доктор Коста — оба изощренные садисты — не остановятся ни перед чем, лишь бы узнать у них секретную информацию, касающуюся имен связных и подпольных тайников. Пытки становятся все более жестокими, сменяясь нечеловеческим сексуальным насилием. Обманув похотливого охранника, девушки абсолютно голыми бегут в джунгли на встречу новым мучениям и смерти...



Страна: Швейцария
Студия: Elite Film
Продолжительность: 01:17:43
Перевод: Авторский одноголосый | Антон Алексеев

Файл
Кодек: x.264
Качество: BDRip 1080p | Tropical.Inferno.1978.1080p.BluRay.x264.DTS-FGT
Видео: MPEG-4 AVC, 1920x1080, 11.5 Mбит/с, 24.000 кадр/с
Аудио #1: Русский ( АС3, 2ch, 224 Кбит/с, 48.0 KHz) Авторский(одноголосый, закадровый) Антон Алексеев
Аудио #2: Английский ( АС3, 6ch, 384 Кбит/с, 48.0 KHz)
Субтитры: нет
MediaInfo
Источник: Tropical.Inferno.1978.1080p.BluRay.x264.DTS-FGT
General
Unique ID : 179139751212490164954940749505135735336 (0x86C50FA4D74098C6AC0B6D073F657228)
Complete name : Frauen.fur.Zellenblock.9.1978.BDRip.1080p
Format : Matroska
Format version : Version 4 / Version 2
File size : 6.57 GiB
Duration : 1 h 17 min
Overall bit rate : 12.1 Mb/s
Encoded date : UTC 2018-09-11 11:33:32
Writing application : mkvmerge v7.1.0 ('Good Love') 64bit built on Jul 27 2014 13:06:55
Writing library : libebml v1.3.0 + libmatroska v1.4.1

Video
ID : 1
Format : AVC
Format/Info : Advanced Video Codec
Format profile : High@L4.1
Format settings : CABAC / 4 Ref Frames
Format settings, CABAC : Yes
Format settings, ReFrames : 4 frames
Codec ID : V_MPEG4/ISO/AVC
Duration : 1 h 17 min
Bit rate : 11.5 Mb/s
Width : 1 920 pixels
Height : 1 080 pixels
Display aspect ratio : 16:9
Frame rate mode : Constant
Frame rate : 24.000 FPS
Color space : YUV
Chroma subsampling : 4:2:0
Bit depth : 8 bits
Scan type : Progressive
Bits/(Pixel*Frame) : 0.231
Stream size : 6.23 GiB (95%)
Writing library : x264 core 148 r2694 3b70645
Encoding settings : cabac=1 / ref=4 / deblock=1:-2:-2 / analyse=0x3:0x113 / me=umh / subme=7 / psy=1 / psy_rd=1.00:0.15 / mixed_ref=1 / me_range=16 / chroma_me=1 / trellis=1 / 8x8dct=1 / cqm=0 / deadzone=21,11 / fast_pskip=1 / chroma_qp_offset=-3 / threads=40 / lookahead_threads=3 / sliced_threads=0 / nr=0 / decimate=1 / interlaced=0 / bluray_compat=0 / constrained_intra=0 / bframes=3 / b_pyramid=2 / b_adapt=2 / b_bias=0 / direct=3 / weightb=1 / open_gop=0 / weightp=2 / keyint=250 / keyint_min=25 / scenecut=40 / intra_refresh=0 / rc_lookahead=50 / rc=abr / mbtree=1 / bitrate=11500 / ratetol=1.0 / qcomp=0.60 / qpmin=0 / qpmax=69 / qpstep=4 / vbv_maxrate=31250 / vbv_bufsize=31250 / nal_hrd=none / filler=0 / ip_ratio=1.40 / aq=1:1.00
Language : English
Default : Yes
Forced : No

Audio #1
ID : 2
Format : AC-3
Format/Info : Audio Coding 3
Commercial name : Dolby Digital
Codec ID : A_AC3
Duration : 1 h 17 min
Bit rate mode : Constant
Bit rate : 224 kb/s
Channel(s) : 2 channels
Channel layout : L R
Sampling rate : 48.0 kHz
Frame rate : 31.250 FPS (1536 SPF)
Bit depth : 16 bits
Compression mode : Lossy
Stream size : 125 MiB (2%)
Language : Russian
Service kind : Complete Main
Default : Yes
Forced : No

Audio #2
ID : 3
Format : AC-3
Format/Info : Audio Coding 3
Commercial name : Dolby Digital
Codec ID : A_AC3
Duration : 1 h 17 min
Bit rate mode : Constant
Bit rate : 384 kb/s
Channel(s) : 6 channels
Channel layout : L R C LFE Ls Rs
Sampling rate : 48.0 kHz
Frame rate : 31.250 FPS (1536 SPF)
Bit depth : 16 bits
Compression mode : Lossy
Stream size : 213 MiB (3%)
Language : English
Service kind : Complete Main
Default : No
Forced : No

Menu
00:00:00.000 : en:Chapter 01
00:06:41.500 : en:Chapter 02
00:11:30.916 : en:Chapter 03
00:17:57.458 : en:Chapter 04
00:25:59.250 : en:Chapter 05
00:32:58.708 : en:Chapter 06
00:36:33.291 : en:Chapter 07
00:40:48.750 : en:Chapter 08
00:45:51.541 : en:Chapter 09
00:49:37.708 : en:Chapter 10
00:57:25.458 : en:Chapter 11
01:08:12.166 : en:Chapter 12
Скриншоты
 

Вложения

  • 17,3 KB Просмотры: 1
    Личеров 0
    Сидеров 0
    Файлов 1
    Объем 6,6 GB

Привет!

Мы группа людей которые решили помочь другим в решении их проблем, а так же пользователям с поиском самых свежих и качественных инфопродуктов. За 4 с небольшим месяца мы создали этот форум на который заходят ежедневно тысячи человек и посещаемость постоянно растёт. Мы создали панель лицензирования для защиты PHP скриптов от воровства и SEO панель для мониторинга наших сайтов и выбора верной стратегии их развития. Мы надеемся что то что мы создали пригодится Вам и возможно Вы поможете нам развиваться и совершенствоваться вместе с Вами.

Статистика форума

Темы
406.531
Сообщения
464.604
Пользователи
83.083
Новый пользователь
Аника123

Приложения форума для iOS и Android


У ркн там нет власти ;)
Приватные разговоры
Помощь Пользователи
    Вы не присоединились ни к одной комнате.