За последнюю неделю опубликовано 60 новых материалов.
Инструкция новичку Путеводитель по форуму Прокси для Telegram Показать подсказки , это бомба!

Скачать Женщина с лилиями (2016) WEB-DLRip от GeneralFilm бесплатно через торрент

  • Поучаствуй (в качестве покупателя) в любых пяти совместных покупках (кроме завершённых и "Моментальных") и получи группу "Новичок" навсегда -> ссылка на раздел
  • Получай до 480 рублей за каждого приглашенного пользователя!
    представляем Вам очередное расширение партнерской программы, подробности описаны тут -> ссылка
  • 90% материалов доступно к скачиванию после простой регистрации!
    Если же ты хочешь скачивать материалы без требования оставлять отзывы то получи группу "Новичок", 10 способов повышения описаны тут -> ссылка
  • К сожалению количество битых ссылок растет и мы уже не можем их оперативно восстанавливать поэтому просим помощи у каждого нашего пользователя.
    С сегодняшнего дня, за каждую восстановленную ссылку мы заплатим Вам.
    Подробнее тут -> ссылка
  • Перенесем твои заслуги с другого ресурса!
    Мы понимаем как сложно прокачивать аккаунты на форумах, вроде раскачал аккаунт, а тут появляется ресурс в 100 раз круче но тоже с системой прокачки и снова качать аккаунт...
    Предлагаем вам перенести Ваши заслуги на другом подобном ресурсе к нам.
    Подробности описаны тут -> ссылка
  • Вы можете получать по 2.5% с каждой покупки и продажи на маркете! Подробности в теме Партнёрская программа
Если Вы не хотите скачивать, Вы всегда можетепосмотретьонлайн, просто нажмите кнопку ниже :

Открыть плеер

Torrent_Bot

Торрент-Бот
Бот форума
4 Окт 2016
92
163
20
Информация о фильме
Оригинальное название: Женщина с лилиями
Год выпуска: 2016
Жанр:Мелодрама
Режиссер: Валерий Рожнов
В ролях: Екатерина Вуличенко, Александр Макогон, Юрий Батурин, Елена Сафонова, Елена Захарова, Денис Матросов, Максим Радугин, Игорь Климов, Наталия Лесниковская, Анна Телицына

О фильме:
Надежда Полунина - лучший акушер-гинеколог в Москве. Надежда любит свою работу, здесь у нее все получается: благодарные родители засыпают ее цветами и подарками. В жизни вроде бы тоже все сложилось: и прекрасно устроенный быт, и наличие бойфренда в виде перспективного коллеги Игоря. На первый взгляд Надежда кажется абсолютно счастливой женщиной.Только очень близкий круг людей знает, как, на самом деле, Надежда не уверена в себе, боится довериться мужчинам. Но больше всего ее тяготит то, что она не может иметь детей. Когда-то Надежда любила по-настоящему, мечтала о счастливой семье, но, забеременев, поняла, что любимый человек ее предал. С этого момента все пошло наперекосяк - ошибка молодости и нерадивых врачей привела к бесплодию. Но именно это событие определило будущую профессию - дети должны, просто обязаны появляться на свет! Внезапно человек из прошлого нарушает привычный ритм ее бытия. В жизни Надежды появляется Борис - любовь из ее юности. Да не один, а с беременной молодой женой, которую Надежда вынуждена вести как доктор.



Страна: Россия
Студия: Кинокомпания «Mauris Film»
Продолжительность: 01:33:22
Перевод: Не требуется

Файл
Формат: avi
Качество: WEB-DLRip
Видео: XviD build 73, 656x368 (16:9), 25.000 fps, 971 Kbps (0.161 bit/pixel)
Звук: 48.0 kHz, MP3, 2/0 ch, 128 kbps
Субтитры: нет

МедиаИнфо
General
Complete name : Zhenshina.s.Lilijami.2016.XviD.WEB-DLRip.GeneralFilm.avi
Format : AVI
Format/Info : Audio Video Interleave
File size : 746 MiB
Duration : 1h 34mn
Overall bit rate : 1 109 Kbps
Writing application : VirtualDubMod 1.5.10.3 | www.virtualdub-fr.org || (build 2550/release)
Writing library : VirtualDubMod build 2550/release

Video
ID : 0
Format : MPEG-4 Visual
Format profile : Advanced [email protected]
Format settings, BVOP : 1
Format settings, QPel : No
Format settings, GMC : No warppoints
Format settings, Matrix : Custom
Codec ID : XVID
Codec ID/Hint : XviD
Duration : 1h 34mn
Bit rate : 971 Kbps
Width : 656 pixels
Height : 368 pixels
Display aspect ratio : 16:9
Frame rate : 25.000 fps
Color space : YUV
Chroma subsampling : 4:2:0
Bit depth : 8 bits
Scan type : Progressive
Compression mode : Lossy
Bits/(Pixel*Frame) : 0.161
Stream size : 653 MiB (88%)
Writing library : XviD 73

Audio
ID : 1
Format : MPEG Audio
Format version : Version 1
Format profile : Layer 3
Codec ID : 55
Codec ID/Hint : MP3
Duration : 1h 34mn
Bit rate mode : Constant
Bit rate : 128 Kbps
Channel(s) : 2 channels
Sampling rate : 48.0 KHz
Compression mode : Lossy
Stream size : 86.1 MiB (12%)
Alignment : Aligned on interleaves
Interleave, duration : 40 ms (1.00 video frame)
Interleave, preload duratio : 504 ms
Writing library : LAME3.99r
Encoding settings : -m s -V 4 -q 0 -lowpass 17 -b 128
Семпл Скриншоты
 

Вложения

  • 30,2 KB Просмотры: 1
    Личеров 0
    Сидеров 0
    Файлов 1
    Объем 745,6 MB

Привет!

Мы группа людей которые решили помочь другим в решении их проблем, а так же пользователям с поиском самых свежих и качественных инфопродуктов. За 4 с небольшим месяца мы создали этот форум на который заходят ежедневно тысячи человек и посещаемость постоянно растёт. Мы создали панель лицензирования для защиты PHP скриптов от воровства и SEO панель для мониторинга наших сайтов и выбора верной стратегии их развития. Мы надеемся что то что мы создали пригодится Вам и возможно Вы поможете нам развиваться и совершенствоваться вместе с Вами.

Статистика форума

Темы
406.702
Сообщения
465.168
Пользователи
84.842
Новый пользователь
fantazy77

Приложения форума для iOS и Android


У ркн там нет власти ;)
Приватные разговоры
Помощь Пользователи
    Вы не присоединились ни к одной комнате.