За последнюю неделю опубликовано 59 новых материалов.
Инструкция новичку Путеводитель по форуму Прокси для Telegram Показать подсказки , это бомба!

Скачать Железный человек 2 / Iron Man 2 (2010) WEB-DL 1080p | D, A | Open Matte бесплатно через торрент

  • Поучаствуй (в качестве покупателя) в любых пяти совместных покупках (кроме завершённых и "Моментальных") и получи группу "Новичок" навсегда -> ссылка на раздел
  • Получай до 480 рублей за каждого приглашенного пользователя!
    представляем Вам очередное расширение партнерской программы, подробности описаны тут -> ссылка
  • 90% материалов доступно к скачиванию после простой регистрации!
    Если же ты хочешь скачивать материалы без требования оставлять отзывы то получи группу "Новичок", 10 способов повышения описаны тут -> ссылка
  • К сожалению количество битых ссылок растет и мы уже не можем их оперативно восстанавливать поэтому просим помощи у каждого нашего пользователя.
    С сегодняшнего дня, за каждую восстановленную ссылку мы заплатим Вам.
    Подробнее тут -> ссылка
  • Перенесем твои заслуги с другого ресурса!
    Мы понимаем как сложно прокачивать аккаунты на форумах, вроде раскачал аккаунт, а тут появляется ресурс в 100 раз круче но тоже с системой прокачки и снова качать аккаунт...
    Предлагаем вам перенести Ваши заслуги на другом подобном ресурсе к нам.
    Подробности описаны тут -> ссылка
  • Вы можете получать по 2.5% с каждой покупки и продажи на маркете! Подробности в теме Партнёрская программа
Если Вы не хотите скачивать, Вы всегда можетепосмотретьонлайн, просто нажмите кнопку ниже :

Открыть плеер

Torrent_Bot

Торрент-Бот
Бот форума
4 Окт 2016
91
163
20



Информация о фильме
Название: Железный человек 2
Оригинальное название: Iron Man 2
Год выхода: 2010
Жанр: фантастика, боевик, приключения
Режиссер: Джон Фавро
В ролях: Роберт Дауни мл., Гвинет Пэлтроу, Дон Чидл, Скарлетт Йоханссон, Сэм Рокуэлл, Микки Рурк, Сэмюэл Л. Джексон, Кларк Грегг, Джон Слэттери, Гарри Шендлинг

О фильме: Прошло полгода с тех пор, как мир узнал, что миллиардер-изобретатель Тони Старк является обладателем уникальной кибер-брони Железного человека. Общественность требует, чтобы Старк передал технологию брони правительству США, но Тони не хочет разглашать её секреты, потому что боится, что она попадёт не в те руки.

Между тем Иван Ванко — сын русского учёного, когда-то работавшего на фирму Старка, но потом уволенного и лишенного всего, намерен отомстить Тони за беды своей семьи. Для чего сооружает своё высокотехнологичное оружие.



Выпущено: Paramount Pictures
Продолжительность: 02:04:34
Перевод: Профессиональный (дублированный), Авторский (одноголосый, закадровый)

Релиз: | spartanec163

Файл
Качество: WEB-DL 1080p | Open Matte
Формат: Matroska
Видео: 1920х1080 at 23.976 fps, MPEG4-AVC, ~11500 kbps avg
Аудио#1: Russian: 48 kHz, AC3, 3/2 (L,C,R,l,r) + LFE ch, ~640 kbps avg |Дубляж, Blu-ray|
Аудио#2: Russian: 48 kHz, DTS, 3/2 (L,C,R,l,r) + LFE ch, ~1509 kbps avg |Дубляж, Custom|
Аудио#3: Russian: 48 kHz, DTS, 3/2 (L,C,R,l,r) + LFE ch, ~1509 kbps avg |Авторский, Ю.Сербин|
Аудио#4: Russian: 48 kHz, DTS, 3/2 (L,C,R,l,r) + LFE ch, ~1509 kbps avg |Авторский, А.Гаврилов|
Аудио#5: Ukrainian: 48 kHz, AC3, 3/2 (L,C,R,l,r) + LFE ch, ~448 kbps avg |Дубляж, DVD|
Аудио#6: English: 48 kHz, DTS, 3/2 (L,C,R,l,r) + LFE ch, ~1509 kbps avg |Blu-ray|
Аудио#7: English: 48 kHz, E-AC3, 3/2 (L,C,R,l,r) + LFE ch, ~640 kbps avg |Amazon|
Аудио#8: English: 48 kHz, AC3, 2/0 (L,R) ch, ~224 kbps avg |Комментарии Джона Фавро|
Субтитры: Russian (Captions, Full), Ukrainian (Captions, Full), English (Full, Commentary, Full (SDH)

***Сохранены и подписаны оригинальные главы
***Исходник видео - Amazon

MediaInfo
General
Unique ID : 232612266043396015132861979980927482023 (0xAEFF7E2C1AA427AD96D54B12A59E38A7)
Complete name : Iron.Man.2.2010.Open.Matte.1080p.WEB-DL.3xRus.Ukr.Eng.TeamHD.mkv
Format : Matroska
Format version : Version 4
File size : 16.9 GiB
Duration : 2 h 4 min
Overall bit rate : 19.5 Mb/s
Movie name : Iron.Man.2.2010.Open.Matte.1080p.WEB-DL.3xRus.Ukr.Eng.TeamHD-spartanec163
Encoded date : UTC 2019-04-05 15:52:44
Writing application : mkvmerge v8.3.0 ('Over the Horizon') 64bit
Writing library : libebml v1.3.1 + libmatroska v1.4.2

Video
ID : 1
Format : AVC
Format/Info : Advanced Video Codec
Format profile : [email protected]
Format settings : CABAC / 4 Ref Frames
Format settings, CABAC : Yes
Format settings, RefFrames : 4 frames
Codec ID : V_MPEG4/ISO/AVC
Duration : 2 h 4 min
Bit rate : 11.5 Mb/s
Width : 1 920 pixels
Height : 1 080 pixels
Display aspect ratio : 16:9
Frame rate mode : Constant
Frame rate : 23.976 (24000/1001) FPS
Color space : YUV
Chroma subsampling : 4:2:0
Bit depth : 8 bits
Scan type : Progressive
Bits/(Pixel*Frame) : 0.231
Stream size : 9.99 GiB (59%)
Title : WEB-DL 1080p (Amazon)
Language : English
Default : Yes
Forced : No
Color range : Limited
Color primaries : BT.709
Transfer characteristics : BT.709
Matrix coefficients : BT.709

Audio #1
ID : 2
Format : AC-3
Format/Info : Audio Coding 3
Commercial name : Dolby Digital
Codec ID : A_AC3
Duration : 2 h 4 min
Bit rate mode : Constant
Bit rate : 640 kb/s
Channel(s) : 6 channels
Channel layout : L R C LFE Ls Rs
Sampling rate : 48.0 kHz
Frame rate : 31.250 FPS (1536 SPF)
Bit depth : 16 bits
Compression mode : Lossy
Stream size : 570 MiB (3%)
Title : AC3 5.1 640Kbps (Дубляж - BluRay)
Language : Russian
Service kind : Complete Main
Default : Yes
Forced : No

Audio #2
ID : 3
Format : DTS
Format/Info : Digital Theater Systems
Codec ID : A_DTS
Duration : 2 h 4 min
Bit rate mode : Constant
Bit rate : 1 509 kb/s
Channel(s) : 6 channels
Channel layout : C L R Ls Rs LFE
Sampling rate : 48.0 kHz
Frame rate : 93.750 FPS (512 SPF)
Bit depth : 24 bits
Compression mode : Lossy
Stream size : 1.31 GiB (8%)
Title : DTS 5.1 1509Kbps (Дубляж - Custom)
Language : Russian
Default : No
Forced : No

Audio #3
ID : 4
Format : DTS
Format/Info : Digital Theater Systems
Codec ID : A_DTS
Duration : 2 h 4 min
Bit rate mode : Constant
Bit rate : 1 509 kb/s
Channel(s) : 6 channels
Channel layout : C L R Ls Rs LFE
Sampling rate : 48.0 kHz
Frame rate : 93.750 FPS (512 SPF)
Bit depth : 24 bits
Compression mode : Lossy
Stream size : 1.31 GiB (8%)
Title : DTS 5.1 1509Kbps (Авторский, одноголосый - Ю. Сербин)
Language : Russian
Default : No
Forced : No

Audio #4
ID : 5
Format : DTS
Format/Info : Digital Theater Systems
Codec ID : A_DTS
Duration : 2 h 4 min
Bit rate mode : Constant
Bit rate : 1 509 kb/s
Channel(s) : 6 channels
Channel layout : C L R Ls Rs LFE
Sampling rate : 48.0 kHz
Frame rate : 93.750 FPS (512 SPF)
Bit depth : 24 bits
Compression mode : Lossy
Stream size : 1.31 GiB (8%)
Title : DTS 5.1 1509Kbps (Авторский, одноголосый - А. Гаврилов)
Language : Russian
Default : No
Forced : No

Audio #5
ID : 6
Format : AC-3
Format/Info : Audio Coding 3
Commercial name : Dolby Digital
Codec ID : A_AC3
Duration : 2 h 4 min
Bit rate mode : Constant
Bit rate : 448 kb/s
Channel(s) : 6 channels
Channel layout : L R C LFE Ls Rs
Sampling rate : 48.0 kHz
Frame rate : 31.250 FPS (1536 SPF)
Bit depth : 16 bits
Compression mode : Lossy
Stream size : 399 MiB (2%)
Title : AC3 5.1 448Kbps (Дубляж - DVD)
Language : Ukrainian
Service kind : Complete Main
Default : No
Forced : No

Audio #6
ID : 7
Format : DTS
Format/Info : Digital Theater Systems
Codec ID : A_DTS
Duration : 2 h 4 min
Bit rate mode : Constant
Bit rate : 1 509 kb/s
Channel(s) : 6 channels
Channel layout : C L R Ls Rs LFE
Sampling rate : 48.0 kHz
Frame rate : 93.750 FPS (512 SPF)
Bit depth : 24 bits
Compression mode : Lossy
Stream size : 1.31 GiB (8%)
Title : DTS 5.1 1509Kbps (Оригинал - BluRay)
Language : English
Default : No
Forced : No

Audio #7
ID : 8
Format : E-AC-3
Format/Info : Enhanced AC-3
Commercial name : Dolby Digital Plus
Codec ID : A_EAC3
Duration : 2 h 4 min
Bit rate mode : Constant
Bit rate : 640 kb/s
Channel(s) : 6 channels
Channel layout : L R C LFE Ls Rs
Sampling rate : 48.0 kHz
Frame rate : 31.250 FPS (1536 SPF)
Compression mode : Lossy
Stream size : 570 MiB (3%)
Title : E-AC3 5.1 640Kbps (Оригинал - Amazon)
Language : English
Service kind : Complete Main
Default : No
Forced : No

Audio #8
ID : 9
Format : AC-3
Format/Info : Audio Coding 3
Commercial name : Dolby Digital
Codec ID : A_AC3
Duration : 2 h 4 min
Bit rate mode : Constant
Bit rate : 224 kb/s
Channel(s) : 2 channels
Channel layout : L R
Sampling rate : 48.0 kHz
Frame rate : 31.250 FPS (1536 SPF)
Bit depth : 16 bits
Compression mode : Lossy
Stream size : 200 MiB (1%)
Title : AC3 2.0 224Kbps (Комментарии Джона Фавро)
Language : English
Service kind : Complete Main
Default : No
Forced : No

Text #1
ID : 10
Format : UTF-8
Codec ID : S_TEXT/UTF8
Codec ID/Info : UTF-8 Plain Text
Duration : 2 h 3 min
Bit rate : 1 b/s
Count of elements : 21
Stream size : 1.00 KiB (0%)
Title : Надписи и пр. (BluRay)
Language : Russian
Default : Yes
Forced : No

Text #2
ID : 11
Format : UTF-8
Codec ID : S_TEXT/UTF8
Codec ID/Info : UTF-8 Plain Text
Duration : 2 h 4 min
Bit rate : 109 b/s
Count of elements : 1549
Stream size : 99.7 KiB (0%)
Title : Полные (BluRay)
Language : Russian
Default : No
Forced : No

Text #3
ID : 12
Format : UTF-8
Codec ID : S_TEXT/UTF8
Codec ID/Info : UTF-8 Plain Text
Duration : 2 h 3 min
Bit rate : 1 b/s
Count of elements : 27
Stream size : 1.15 KiB (0%)
Title : Надписи и пр. (BluRay)
Language : Ukrainian
Default : No
Forced : No

Text #4
ID : 13
Format : UTF-8
Codec ID : S_TEXT/UTF8
Codec ID/Info : UTF-8 Plain Text
Duration : 2 h 4 min
Bit rate : 103 b/s
Count of elements : 1553
Stream size : 93.9 KiB (0%)
Title : Полные (BluRay)
Language : Ukrainian
Default : No
Forced : No

Text #5
ID : 14
Format : UTF-8
Codec ID : S_TEXT/UTF8
Codec ID/Info : UTF-8 Plain Text
Duration : 2 h 4 min
Bit rate : 68 b/s
Count of elements : 1537
Stream size : 62.0 KiB (0%)
Title : Полные (BluRay)
Language : English
Default : No
Forced : No

Text #6
ID : 15
Format : UTF-8
Codec ID : S_TEXT/UTF8
Codec ID/Info : UTF-8 Plain Text
Duration : 2 h 4 min
Bit rate : 69 b/s
Count of elements : 1634
Stream size : 63.7 KiB (0%)
Title : Полные, SDH (Amazon)
Language : English
Default : No
Forced : No

Text #7
ID : 16
Format : UTF-8
Codec ID : S_TEXT/UTF8
Codec ID/Info : UTF-8 Plain Text
Duration : 2 h 4 min
Bit rate : 109 b/s
Count of elements : 2144
Stream size : 99.6 KiB (0%)
Title : Комментарии Джона Фавро
Language : English
Default : No
Forced : No

Menu
00:00:00.000 : en:Studio Logos
00:00:37.000 : en:Anton Vanko Watches Stark's Press Conference
00:02:42.000 : en:Ivan Builds a Weapon
00:05:03.000 : en:Tony Makes the Opening Speech at Stark Expo
00:08:55.000 : en:Stark Gets Served
00:11:06.000 : en:Stark Defends Himself in a Senate Hearing
00:17:12.000 : en:Ivan Completes His Work
00:17:59.000 : en:Stark Checks the Status of the Arc Reactor
00:19:22.000 : en:Stark Makes Pepper the New CEO
00:22:20.000 : en:Ivan Makes Arrangements to Travel
00:22:59.000 : en:Stark Admires Pepper's New Assistant
00:25:52.000 : en:Stark Arrives at the Monaco Grand Prix
00:30:14.000 : en:Ivan Makes an Appearance
00:37:31.000 : en:Stark Questions Ivan
00:40:16.000 : en:Stark Tries to Talk Pepper into Taking a Break with Him
00:42:09.000 : en:Ivan Is Broken out of Jail
00:44:00.000 : en:Hammer Enlists Ivan
00:46:52.000 : en:Rhodey Informs Tony about the Military's Intentions
00:49:42.000 : en:Hammer Shows Ivan the Facilities
00:51:38.000 : en:Stark Talks to Natalie
00:53:14.000 : en:Rhodey Shuts Down Tony's Birthday Party
00:56:44.000 : en:A Fight Breaks Out at the Birthday Party
01:00:08.000 : en:Rhodey Flies to an Air Force Base
01:01:20.000 : en:Nick Fury Talks to Stark about His Problem
01:03:59.000 : en:Hammer Discovers Ivan Is Creating Drones
01:06:11.000 : en:Rhodey Shows General Meade the Suit
01:07:00.000 : en:Nick Fury Tells Tony about the Arc Reactor
01:09:53.000 : en:Hammer Presents Several Weapons to Rhodey
01:12:52.000 : en:Tony Goes through the Package
01:15:59.000 : en:Stark Tries to Apologize to Pepper
01:21:12.000 : en:Stark Rediscovers the Key
01:23:42.000 : en:Stark Synthesizes a New Element for His Reactor
01:27:27.000 : en:Ivan Talks to Hammer about Drones
01:30:32.000 : en:Ivan Gives Tony a Call
01:32:02.000 : en:Hammer Presents at Stark Expo
01:35:31.000 : en:Iron Man Crashes the Expo
01:36:58.000 : en:Drones and War Machine Pursue Iron Man
01:41:17.000 : en:Black Widow and Happy Provide Added Support
01:45:40.000 : en:Stark and Rhodey Finish Off the Hammer Drones
01:48:59.000 : en:Tony and Rhodey Battle Vanko
01:52:13.000 : en:Stark and Pepper Assess Their Relationship
01:54:16.000 : en:Fury Gives Stark His Psychological Assessment
01:56:09.000 : en:Senator Stern Presents Medals to Stark and Rhodey
01:57:01.000 : en:End Credits
02:03:35.000 : en:Agent Coulson Reports Finding a Hammer
02:04:27.000 : en:Studio Logos
Скриншоты
 

Вложения

  • 85,7 KB Просмотры: 1
    Личеров 0
    Сидеров 0
    Файлов 1
    Объем 16,9 GB

Привет!

Мы группа людей которые решили помочь другим в решении их проблем, а так же пользователям с поиском самых свежих и качественных инфопродуктов. За 4 с небольшим месяца мы создали этот форум на который заходят ежедневно тысячи человек и посещаемость постоянно растёт. Мы создали панель лицензирования для защиты PHP скриптов от воровства и SEO панель для мониторинга наших сайтов и выбора верной стратегии их развития. Мы надеемся что то что мы создали пригодится Вам и возможно Вы поможете нам развиваться и совершенствоваться вместе с Вами.

Статистика форума

Темы
410.544
Сообщения
469.084
Пользователи
86.043
Новый пользователь
RezzCap

Приложения форума для iOS и Android


У ркн там нет власти ;)
Приватные разговоры
Помощь Пользователи
    Вы не присоединились ни к одной комнате.