За последнюю неделю опубликовано 57 новых материалов.
Инструкция новичку Путеводитель по форуму Прокси для Telegram Показать подсказки , это бомба!

Скачать Железнодорожные тигры / Tie dao fei hu / Railroad Tigers (2016) BDRip 720p | P, P2, A, L1 бесплатно через торрент

  • Поучаствуй (в качестве покупателя) в любых пяти совместных покупках (кроме завершённых и "Моментальных") и получи группу "Новичок" навсегда -> ссылка на раздел
  • Получай до 480 рублей за каждого приглашенного пользователя!
    представляем Вам очередное расширение партнерской программы, подробности описаны тут -> ссылка
  • 90% материалов доступно к скачиванию после простой регистрации!
    Если же ты хочешь скачивать материалы без требования оставлять отзывы то получи группу "Новичок", 10 способов повышения описаны тут -> ссылка
  • К сожалению количество битых ссылок растет и мы уже не можем их оперативно восстанавливать поэтому просим помощи у каждого нашего пользователя.
    С сегодняшнего дня, за каждую восстановленную ссылку мы заплатим Вам.
    Подробнее тут -> ссылка
  • Перенесем твои заслуги с другого ресурса!
    Мы понимаем как сложно прокачивать аккаунты на форумах, вроде раскачал аккаунт, а тут появляется ресурс в 100 раз круче но тоже с системой прокачки и снова качать аккаунт...
    Предлагаем вам перенести Ваши заслуги на другом подобном ресурсе к нам.
    Подробности описаны тут -> ссылка
  • Вы можете получать по 2.5% с каждой покупки и продажи на маркете! Подробности в теме Партнёрская программа
Если Вы не хотите скачивать, Вы всегда можетепосмотретьонлайн, просто нажмите кнопку ниже :

Открыть плеер

Torrent_Bot

Торрент-Бот
Бот форума
4 Окт 2016
92
163
20



Информация о фильме
Название: Железнодорожные тигры
Оригинальное название: Tie dao fei hu / Railroad Tigers
Год выхода: 2016
Жанр: комедия, приключения, военный, боевик
Режиссер: Дин Шэн / Ding Sheng
В ролях: Джеки Чан, Цзытао Хуан, Джэйси Чан, Кай Ван, Хироюки Икеучи, Пин Сан, Алан ЭнДжи, Фань Сюй, Даррен Ван, Кодзи Яно, Ланьсинь Чжан, Ишан Чжан, Вэй На, Юньвэй Хэ, Асано Нагахидэ, Натас Асока, Хайлун Лю...

О фильме:
В декабре 1941 года Япония расширяет оккупацию соседних стран в Юго-Восточной Азии. Железная дорога от Тяньцзинь Нанкин в Восточном Китае стала ключевым маршрутом для военных перевозок под усиленной охраной японских солдат. Работник железной дороги Ма Юань организовывает команду борцов за свободу. Используя свои глубокие знания железнодорожных сетей, он со своими людьми устраивает засады на японских солдат и ворует их припасы, чтобы накормить голодающих соотечественников.

Местные называют своих героев «железнодорожными тиграми». И когда борцы за свободу оказываются на неправильной стороне путей при отправке подкрепления японцам в провинцию Шаньдун, Ма Юань решается на опасный поступок - взорвать тщательно охраняемый железнодорожный мост.



Страна: Китай
Студия: Shanghai Film Group, Yaolai Entertainment Media, Shanghai New Culture Media Group, Beijing Motianlun Media
Продолжительность: 02:04:15
Перевод: профессиональный (многоголосный x2, двуголосный, закадровый) + авторский + любительский (одноголосный, закадровый) + субтитры

Файл
Кодек: x264
Качество: BDRip 720p
Видео: AVC, 5551 kbps, 1280x536, 2.40:1, 24.000 fps, 0.337 bppf
Звук:
(1) Русский Dolby AC3, 48.0 kHz, 5.1 Ch, 640.0 kbps — Jaskier (2017 г.) [MVO] < по умолчанию >
(2) Русский Dolby AC3, 48.0 kHz, 2 Ch, 192.0 kbps — ТНТ4 (2019 г.) [MVO]
(3) Русский Dolby AC3, 48.0 kHz, 2 Ch, 192.0 kbps — Кинопремьера (2018 г.) [DVO]
(4) Русский Dolby AC3, 48.0 kHz, 5.1 Ch, 384.0 kbps — Юрий Живов [AVO]
(5) Русский Dolby AC3, 48.0 kHz, 2 Ch, 192.0 kbps — Chesterfield (2017 г.) - Клуб фанатов азиатского кино «Таверна» [VO]
(6) Китайский DTS, 48.0 kHz, 5.1 Ch, 24 bits, 1509.0 kbps — Original Mandarin
Субтитры: Русские (Omskbird (2017 г.) - Полные, srt), English (Full, srt)
Главы: Есть, неименованные

Семпл

MediaInfo
General
Unique ID : 272839762228552827287171857514644769690 (0xCD4306DCFD8CC038D98661C8E05E0B9A)
Complete name : Tie dao fei hu [2016] [Ding Sheng] [BDRip-AVC HD].mkv
Format : Matroska
Format version : Version 4
File size : 7.52 GiB
Duration : 2 h 4 min
Overall bit rate : 8 665 kb/s
Movie name : Tie dao fei hu [2016] [Ding Sheng]
Encoded date : UTC 2020-07-16 20:01:45
Writing application : mkvmerge v48.0.0 ('Fortress Around Your Heart') 64-bit
Writing library : libebml v1.4.0 + libmatroska v1.6.0
Attachments : Tie dao fei hu [2016] [Ding Sheng].jpg

Video
ID : 1
Format : AVC
Format/Info : Advanced Video Codec
Format profile : [email protected]
Format settings : CABAC / 12 Ref Frames
Format settings, CABAC : Yes
Format settings, Reference fra : 12 frames
Codec ID : V_MPEG4/ISO/AVC
Duration : 2 h 4 min
Bit rate : 5 551 kb/s
Width : 1 280 pixels
Height : 536 pixels
Display aspect ratio : 2.40:1
Frame rate mode : Constant
Frame rate : 24.000 FPS
Color space : YUV
Chroma subsampling : 4:2:0
Bit depth : 8 bits
Scan type : Progressive
Bits/(Pixel*Frame) : 0.337
Stream size : 4.82 GiB (64%)
Title : Tie dao fei hu [2016] [Ding Sheng] [BDRip-AVC HD] [LION1234]
Writing library : x264 core 150 r2833 df79067
Encoding settings : cabac=1 / ref=12 / deblock=1:-3:-3 / analyse=0x3:0x113 / me=umh / subme=10 / psy=1 / psy_rd=0.90:0.00 / mixed_ref=1 / me_range=24 / chroma_me=1 / trellis=2 / 8x8dct=1 / cqm=0 / deadzone=21,11 / fast_pskip=1 / chroma_qp_offset=-2 / threads=6 / lookahead_threads=1 / sliced_threads=0 / nr=0 / decimate=0 / interlaced=0 / bluray_compat=0 / constrained_intra=0 / bframes=8 / b_pyramid=2 / b_adapt=2 / b_bias=0 / direct=1 / weightb=1 / open_gop=0 / weightp=2 / keyint=250 / keyint_min=23 / scenecut=40 / intra_refresh=0 / rc_lookahead=60 / rc=crf / mbtree=0 / crf=15.8 / qcomp=0.68 / qpmin=0 / qpmax=69 / qpstep=4 / vbv_maxrate=62500 / vbv_bufsize=78125 / crf_max=0.0 / nal_hrd=none / filler=0 / ip_ratio=1.40 / pb_ratio=1.30 / aq=2:0.72
Language : Chinese
Default : Yes
Forced : No

Audio #1
ID : 2
Format : AC-3
Format/Info : Audio Coding 3
Commercial name : Dolby Digital
Codec ID : A_AC3
Duration : 2 h 4 min
Bit rate mode : Constant
Bit rate : 640 kb/s
Channel(s) : 6 channels
Channel layout : L R C LFE Ls Rs
Sampling rate : 48.0 kHz
Frame rate : 31.250 FPS (1536 SPF)
Bit depth : 16 bits
Compression mode : Lossy
Stream size : 569 MiB (7%)
Title : Jaskier (2017 г.) [MVO]
Language : Russian
Service kind : Complete Main
Default : Yes
Forced : No

Audio #2
ID : 3
Format : AC-3
Format/Info : Audio Coding 3
Commercial name : Dolby Digital
Codec ID : A_AC3
Duration : 2 h 4 min
Bit rate mode : Constant
Bit rate : 192 kb/s
Channel(s) : 2 channels
Channel layout : L R
Sampling rate : 48.0 kHz
Frame rate : 31.250 FPS (1536 SPF)
Bit depth : 16 bits
Compression mode : Lossy
Stream size : 171 MiB (2%)
Title : ТНТ4 (2019 г.) [MVO]
Language : Russian
Service kind : Complete Main
Default : No
Forced : No

Audio #3
ID : 4
Format : AC-3
Format/Info : Audio Coding 3
Commercial name : Dolby Digital
Codec ID : A_AC3
Duration : 2 h 4 min
Bit rate mode : Constant
Bit rate : 192 kb/s
Channel(s) : 2 channels
Channel layout : L R
Sampling rate : 48.0 kHz
Frame rate : 31.250 FPS (1536 SPF)
Bit depth : 16 bits
Compression mode : Lossy
Stream size : 171 MiB (2%)
Title : Кинопремьера (2018 г.) [DVO]
Language : Russian
Service kind : Complete Main
Default : No
Forced : No

Audio #4
ID : 5
Format : AC-3
Format/Info : Audio Coding 3
Commercial name : Dolby Digital
Codec ID : A_AC3
Duration : 2 h 4 min
Bit rate mode : Constant
Bit rate : 384 kb/s
Channel(s) : 6 channels
Channel layout : L R C LFE Ls Rs
Sampling rate : 48.0 kHz
Frame rate : 31.250 FPS (1536 SPF)
Bit depth : 16 bits
Compression mode : Lossy
Stream size : 341 MiB (4%)
Title : Юрий Живов [AVO]
Language : Russian
Service kind : Complete Main
Default : No
Forced : No

Audio #5
ID : 6
Format : AC-3
Format/Info : Audio Coding 3
Commercial name : Dolby Digital
Codec ID : A_AC3
Duration : 2 h 4 min
Bit rate mode : Constant
Bit rate : 192 kb/s
Channel(s) : 2 channels
Channel layout : L R
Sampling rate : 48.0 kHz
Frame rate : 31.250 FPS (1536 SPF)
Bit depth : 16 bits
Compression mode : Lossy
Stream size : 171 MiB (2%)
Title : Chesterfield (2017 г.) - Клуб фанатов азиатского кино «Таверна» [VO]
Language : Russian
Service kind : Complete Main
Default : No
Forced : No

Audio #6
ID : 7
Format : DTS
Format/Info : Digital Theater Systems
Codec ID : A_DTS
Duration : 2 h 4 min
Bit rate mode : Constant
Bit rate : 1 509 kb/s
Channel(s) : 6 channels
Channel layout : C L R Ls Rs LFE
Sampling rate : 48.0 kHz
Frame rate : 93.750 FPS (512 SPF)
Bit depth : 24 bits
Compression mode : Lossy
Stream size : 1.31 GiB (17%)
Title : (DTS) Original Mandarin
Language : Chinese
Default : No
Forced : No

Text #1
ID : 8
Format : UTF-8
Codec ID : S_TEXT/UTF8
Codec ID/Info : UTF-8 Plain Text
Duration : 2 h 2 min
Bit rate : 53 b/s
Count of elements : 1317
Stream size : 47.7 KiB (0%)
Title : Omskbird (2017 г.) - Полные
Language : Russian
Default : No
Forced : No

Text #2
ID : 9
Format : UTF-8
Codec ID : S_TEXT/UTF8
Codec ID/Info : UTF-8 Plain Text
Duration : 2 h 2 min
Bit rate : 34 b/s
Count of elements : 1254
Stream size : 30.8 KiB (0%)
Title : English Full
Language : English
Default : No
Forced : No

Menu
00:00:00.000 : en:00:00:00.000
00:11:37.083 : en:00:11:37.083
00:20:22.792 : en:00:20:22.792
00:31:07.167 : en:00:31:07.167
00:41:32.583 : en:00:41:32.583
00:54:51.583 : en:00:54:51.583
01:02:03.917 : en:01:02:03.917
01:14:17.458 : en:01:14:17.458
01:23:37.167 : en:01:23:37.167
01:31:45.125 : en:01:31:45.125
01:42:10.083 : en:01:42:10.083
01:51:37.042 : en:01:51:37.042
Скриншоты


Дополнительная информация
1. Спасибо LION1234 за видео, аудиодорожки (кроме 2, 3), субтитры и главы (Zheleznye.Tigry.Railroad.Tigers.2016.DD.x264.mkv 7.18 GB 7716598636).

2. Спасибо miha2154 за переводы ТНТ4, Кинопремьера (Железнодорожные тигры.avi 2.19 GB 2356756480).
 

Вложения

  • 19,7 KB Просмотры: 0
    Личеров 0
    Сидеров 0
    Файлов 1
    Объем 7,5 GB

Привет!

Мы группа людей которые решили помочь другим в решении их проблем, а так же пользователям с поиском самых свежих и качественных инфопродуктов. За 4 с небольшим месяца мы создали этот форум на который заходят ежедневно тысячи человек и посещаемость постоянно растёт. Мы создали панель лицензирования для защиты PHP скриптов от воровства и SEO панель для мониторинга наших сайтов и выбора верной стратегии их развития. Мы надеемся что то что мы создали пригодится Вам и возможно Вы поможете нам развиваться и совершенствоваться вместе с Вами.

Статистика форума

Темы
406.699
Сообщения
465.164
Пользователи
84.823
Новый пользователь
servet2510

Приложения форума для iOS и Android


У ркн там нет власти ;)
Приватные разговоры
Помощь Пользователи
    Вы не присоединились ни к одной комнате.