За последнюю неделю опубликовано 35 новых материалов.
Инструкция новичку Путеводитель по форуму Прокси для Telegram Показать подсказки , это бомба!

Скачать Жандарм из Сен-Тропе / Le gendarme de Saint-Tropez (1964) BDRip 1080p | P, A бесплатно через торрент

  • Поучаствуй (в качестве покупателя) в любых пяти совместных покупках (кроме завершённых и "Моментальных") и получи группу "Новичок" навсегда -> ссылка на раздел
  • Получай до 480 рублей за каждого приглашенного пользователя!
    представляем Вам очередное расширение партнерской программы, подробности описаны тут -> ссылка
  • 90% материалов доступно к скачиванию после простой регистрации!
    Если же ты хочешь скачивать материалы без требования оставлять отзывы то получи группу "Новичок", 10 способов повышения описаны тут -> ссылка
  • К сожалению количество битых ссылок растет и мы уже не можем их оперативно восстанавливать поэтому просим помощи у каждого нашего пользователя.
    С сегодняшнего дня, за каждую восстановленную ссылку мы заплатим Вам.
    Подробнее тут -> ссылка
  • Перенесем твои заслуги с другого ресурса!
    Мы понимаем как сложно прокачивать аккаунты на форумах, вроде раскачал аккаунт, а тут появляется ресурс в 100 раз круче но тоже с системой прокачки и снова качать аккаунт...
    Предлагаем вам перенести Ваши заслуги на другом подобном ресурсе к нам.
    Подробности описаны тут -> ссылка
  • Вы можете получать по 2.5% с каждой покупки и продажи на маркете! Подробности в теме Партнёрская программа
Если Вы не хотите скачивать, Вы всегда можетепосмотретьонлайн, просто нажмите кнопку ниже :

Открыть плеер

Torrent_Bot

Торрент-Бот
Бот форума
4 Окт 2016
93
155
20
Информация о фильме
Название: Жандарм из Сен-Тропе
Оригинальное название: Le gendarme de Saint-Tropez
Год выхода: 1964
Жанр: комедия, криминал
Режиссер: Жан Жиро
В ролях: Луи де Фюнес, Женевьев Град, Мишель Галабрю, Даниэль Коши, Мадлен Делавэвр, Мария Паком, Клод Пьеплю, Габриэле Тинти, Мишель Варнье, Кристиан Марен

Описание:
Получив повышение, в уютный курортный городок Сен-Тропе приезжает бравый жандарм Крюшо с красоткой-дочерью Николь. Добрые, но недотепистые местные жандармы с радостью принимают Крюшо в свой круг. Но их радость быстро проходит: не такой добряк, но еще более придурковатый Крюшо с рвением бросается на защиту закона даже тогда, когда закон в его защите не нуждается.

С приездом в Сен-Тропе жандарма Крюшо «мирная» жизнь городка заканчивается: охота на нудистов, поиски украденной из музея бесценной картины, поимка банды опасных преступников — бестолковому жандарму всегда найдется занятие. Да и за легкомысленной Николь нужен глаз да глаз…



Страна: Италия, Франция
Продолжительность: 01:39:13
Перевод: Профессиональный (Многоголосый, Закадровый) + Авторский (Одноголосый, Закадровый)
Субтитры: Русские, Французские, Английские

Файл
Формат: MKV
Качество: BDRip 1080p
Видео: AVC/H.264, 1916x816, ~15.1 Mbps
Аудио 01: AC3, 2 ch, 192 kbps - Русский, многоголосый закадровый (НТВ+)
Аудио 02: AC3, 2 ch, 192 kbps - Русский, многоголосый закадровый (РенТВ)
Аудио 03: AC3, 2 ch, 192 kbps - Русский, многоголосый закадровый (Останкино)
Аудио 04: AC3, 2 ch, 192 kbps - Русский, многоголосый закадровый (ОРТ)
Аудио 05: FLAC, 2 ch, 309 kbps - Русский, многоголосый закадровый (SomeWax)
Аудио 06: FLAC, 2 ch, 309 kbps - Русский, одноголосый (Р. Янкелевич)
Аудио 07: AC3, 2 ch, 192 kbps - Русский, одноголосый (К. Дьяконов)
Аудио 08: AC3, 2 ch, 192 kbps - Русский, одноголосый (Л. Володарский)
Аудио 09: AC3, 2 ch, 192 kbps - Русский, одноголосый (С. Кузьмичев [НТПО Мост])
Аудио 10: AC3, 2 ch, 192 kbps - Русский, одноголосый (С. Визгунов)
Аудио 11: AC3, 2 ch, 192 kbps - Украинский, многоголосый закадровый
Аудио 12: AC3, 2 ch, 192 kbps - Немецкий, дублированный
Аудио 13: FLAC, 2 ch, 270 kbps - Французский

M/I
Общее
Уникальный идентификатор : 173674570127757250464237171813456128869 (0x82A88169AD7A011BAC02F5F77649AB65)
Полное имя : Le.gendarme.de.Saint-Tropez.1964.1080p.BluRay.10xRus.Ukr.Ger.Fre.mkv
Формат : Matroska
Версия формата : Version 2
Размер файла : 12,4 Гбайт
Продолжительность : 1 ч. 39 м.
Режим общего битрейта : Переменный
Общий поток : 18,0 Мбит/сек
Название фильма : Le gendarme de Saint-Tropez (1964)
Дата кодирования : UTC 2018-09-15 17:25:11
Программа кодирования : mkvmerge v5.8.0 ('No Sleep / Pillow') built on Sep 2 2012 15:37:04
Библиотека кодирования : libebml v1.2.3 + libmatroska v1.3.0
Обложка : Yes
Attachments : cover.jpg / xlog.txt

Видео
Идентификатор : 1
Формат : AVC
Формат/Информация : Advanced Video Codec
Профиль формата : High@L4.1
Настройки формата : CABAC / 5 Ref Frames
Параметр CABAC формата : Да
Параметр RefFrames формата : 5 кадров
Режим смешивания : Header stripping
Идентификатор кодека : V_MPEG4/ISO/AVC
Продолжительность : 1 ч. 39 м.
Ширина : 1916 пикселей
Высота : 816 пикселей
Соотношение сторон : 2,35:1
Режим частоты кадров : Постоянный
Частота кадров : 24,000 кадра/сек
Цветовое пространство : YUV
Субдискретизация насыщенности : 4:2:0
Битовая глубина : 8 бит
Тип развёртки : Прогрессивная
Заголовок : Release for HDBITS
Библиотека кодирования : x264 core 128 r2216kMod 198a7ea
Настройки программы : cabac=1 / ref=5 / deblock=1:-3:-3 / analyse=0x3:0x113 / me=umh / subme=11 / psy=1 / fade_compensate=0.00 / psy_rd=1.00:0.00 / mixed_ref=1 / me_range=48 / chroma_me=1 / trellis=2 / 8x8dct=1 / cqm=0 / deadzone=21,11 / fast_pskip=1 / chroma_qp_offset=-2 / threads=12 / lookahead_threads=2 / sliced_threads=0 / nr=0 / decimate=1 / interlaced=0 / bluray_compat=0 / constrained_intra=0 / bframes=9 / b_pyramid=2 / b_adapt=2 / b_bias=0 / direct=3 / weightb=1 / open_gop=0 / weightp=2 / keyint=250 / keyint_min=24 / scenecut=40 / intra_refresh=0 / rc_lookahead=40 / rc=crf / mbtree=0 / crf=17.0000 / qcomp=0.60 / qpmin=0 / qpmax=69 / qpstep=4 / vbv_maxrate=50000 / vbv_bufsize=62500 / crf_max=0.0 / nal_hrd=none / ip_ratio=1.40 / pb_ratio=1.30 / aq=1:0.80
Язык : French
Default : Да
Forced : Нет
Цветовой диапазон : Limited
Коэффициенты матрицы : BT.709

Аудио #1
Идентификатор : 2
Формат : AC-3
Формат/Информация : Audio Coding 3
Коммерческое название : Dolby Digital
Режим смешивания : Header stripping
Идентификатор кодека : A_AC3
Продолжительность : 1 ч. 39 м.
Вид битрейта : Постоянный
Битрейт : 192 Кбит/сек
Каналы : 2 канала
Channel layout : L R
Частота : 48,0 КГц
Частота кадров : 31,250 кадров/сек (1536 SPF)
Битовая глубина : 16 бит
Метод сжатия : С потерями
Размер потока : 136 Мбайт (1%)
Заголовок : AC3 2.0 @ 192 kbps - Многоголосый, НТВ+
Язык : Russian
ServiceKind/Str.ing : Complete Main
Default : Да
Forced : Нет

Аудио #2
Идентификатор : 3
Формат : AC-3
Формат/Информация : Audio Coding 3
Коммерческое название : Dolby Digital
Режим смешивания : Header stripping
Идентификатор кодека : A_AC3
Продолжительность : 1 ч. 39 м.
Вид битрейта : Постоянный
Битрейт : 192 Кбит/сек
Каналы : 2 канала
Channel layout : L R
Частота : 48,0 КГц
Частота кадров : 31,250 кадров/сек (1536 SPF)
Битовая глубина : 16 бит
Метод сжатия : С потерями
Размер потока : 136 Мбайт (1%)
Заголовок : AC3 2.0 @ 192 kbps - Многоголосый, РенТВ
Язык : Russian
ServiceKind/Str.ing : Complete Main
Default : Нет
Forced : Нет

Аудио #3
Идентификатор : 4
Формат : AC-3
Формат/Информация : Audio Coding 3
Коммерческое название : Dolby Digital
Режим смешивания : Header stripping
Идентификатор кодека : A_AC3
Продолжительность : 1 ч. 39 м.
Вид битрейта : Постоянный
Битрейт : 192 Кбит/сек
Каналы : 2 канала
Channel layout : L R
Частота : 48,0 КГц
Частота кадров : 31,250 кадров/сек (1536 SPF)
Битовая глубина : 16 бит
Метод сжатия : С потерями
Размер потока : 136 Мбайт (1%)
Заголовок : AC3 2.0 @ 192 kbps - Многоголосый, Останкино
Язык : Russian
ServiceKind/Str.ing : Complete Main
Default : Нет
Forced : Нет

Аудио #4
Идентификатор : 5
Формат : AC-3
Формат/Информация : Audio Coding 3
Коммерческое название : Dolby Digital
Режим смешивания : Header stripping
Идентификатор кодека : A_AC3
Продолжительность : 1 ч. 39 м.
Вид битрейта : Постоянный
Битрейт : 192 Кбит/сек
Каналы : 2 канала
Channel layout : L R
Частота : 48,0 КГц
Частота кадров : 31,250 кадров/сек (1536 SPF)
Битовая глубина : 16 бит
Метод сжатия : С потерями
Размер потока : 136 Мбайт (1%)
Заголовок : AC3 2.0 @ 192 kbps - Многоголосый, ОРТ
Язык : Russian
ServiceKind/Str.ing : Complete Main
Default : Нет
Forced : Нет

Аудио #5
Идентификатор : 6
Формат : FLAC
Формат/Информация : Free Lossless Audio Codec
Идентификатор кодека : A_FLAC
Продолжительность : 1 ч. 39 м.
Вид битрейта : Переменный
Каналы : 2 канала
Channel layout : L R
Частота : 48,0 КГц
Битовая глубина : 16 бит
Метод сжатия : Без потерь
Заголовок : FLAC 2.0 @ 309 kbps - Многоголосый, SomeWax
Библиотека кодирования : libFLAC 1.2.1 (UTC 2007-09-17)
Язык : Russian
Default : Нет
Forced : Нет

Аудио #6
Идентификатор : 7
Формат : FLAC
Формат/Информация : Free Lossless Audio Codec
Идентификатор кодека : A_FLAC
Продолжительность : 1 ч. 39 м.
Вид битрейта : Переменный
Каналы : 2 канала
Channel layout : L R
Частота : 48,0 КГц
Битовая глубина : 16 бит
Метод сжатия : Без потерь
Заголовок : FLAC 2.0 @ 309 kbps - Одноголосый, Р. Янкелевич
Библиотека кодирования : libFLAC 1.2.1 (UTC 2007-09-17)
Язык : Russian
Default : Нет
Forced : Нет

Аудио #7
Идентификатор : 8
Формат : AC-3
Формат/Информация : Audio Coding 3
Коммерческое название : Dolby Digital
Режим смешивания : Header stripping
Идентификатор кодека : A_AC3
Продолжительность : 1 ч. 39 м.
Вид битрейта : Постоянный
Битрейт : 192 Кбит/сек
Каналы : 2 канала
Channel layout : L R
Частота : 48,0 КГц
Частота кадров : 31,250 кадров/сек (1536 SPF)
Битовая глубина : 16 бит
Метод сжатия : С потерями
Размер потока : 136 Мбайт (1%)
Заголовок : AC3 2.0 @ 192 kbps - Одноголосый, К. Дьяконов
Язык : Russian
ServiceKind/Str.ing : Complete Main
Default : Нет
Forced : Нет

Аудио #8
Идентификатор : 9
Формат : AC-3
Формат/Информация : Audio Coding 3
Коммерческое название : Dolby Digital
Режим смешивания : Header stripping
Идентификатор кодека : A_AC3
Продолжительность : 1 ч. 39 м.
Вид битрейта : Постоянный
Битрейт : 192 Кбит/сек
Каналы : 2 канала
Channel layout : L R
Частота : 48,0 КГц
Частота кадров : 31,250 кадров/сек (1536 SPF)
Битовая глубина : 16 бит
Метод сжатия : С потерями
Размер потока : 136 Мбайт (1%)
Заголовок : AC3 2.0 @ 192 kbps - Одноголосый, Л. Володарский
Язык : Russian
ServiceKind/Str.ing : Complete Main
Default : Нет
Forced : Нет

Аудио #9
Идентификатор : 10
Формат : AC-3
Формат/Информация : Audio Coding 3
Коммерческое название : Dolby Digital
Режим смешивания : Header stripping
Идентификатор кодека : A_AC3
Продолжительность : 1 ч. 39 м.
Вид битрейта : Постоянный
Битрейт : 192 Кбит/сек
Каналы : 2 канала
Channel layout : L R
Частота : 48,0 КГц
Частота кадров : 31,250 кадров/сек (1536 SPF)
Битовая глубина : 16 бит
Метод сжатия : С потерями
Размер потока : 136 Мбайт (1%)
Заголовок : AC3 2.0 @ 192 kbps - Одноголосый, С. Кузьмичев [НТПО Мост]
Язык : Russian
ServiceKind/Str.ing : Complete Main
Default : Нет
Forced : Нет

Аудио #10
Идентификатор : 11
Формат : AC-3
Формат/Информация : Audio Coding 3
Коммерческое название : Dolby Digital
Режим смешивания : Header stripping
Идентификатор кодека : A_AC3
Продолжительность : 1 ч. 39 м.
Вид битрейта : Постоянный
Битрейт : 192 Кбит/сек
Каналы : 2 канала
Channel layout : L R
Частота : 48,0 КГц
Частота кадров : 31,250 кадров/сек (1536 SPF)
Битовая глубина : 16 бит
Метод сжатия : С потерями
Размер потока : 136 Мбайт (1%)
Заголовок : AC3 2.0 @ 192 kbps - Одноголосый, С. Визгунов
Язык : Russian
ServiceKind/Str.ing : Complete Main
Default : Нет
Forced : Нет

Аудио #11
Идентификатор : 12
Формат : AC-3
Формат/Информация : Audio Coding 3
Коммерческое название : Dolby Digital
Режим смешивания : Header stripping
Идентификатор кодека : A_AC3
Продолжительность : 1 ч. 39 м.
Вид битрейта : Постоянный
Битрейт : 192 Кбит/сек
Каналы : 2 канала
Channel layout : L R
Частота : 48,0 КГц
Частота кадров : 31,250 кадров/сек (1536 SPF)
Битовая глубина : 16 бит
Метод сжатия : С потерями
Размер потока : 136 Мбайт (1%)
Заголовок : AC3 2.0 @ 192 kbps - Многоголосый
Язык : Ukrainian
ServiceKind/Str.ing : Complete Main
Default : Нет
Forced : Нет

Аудио #12
Идентификатор : 13
Формат : AC-3
Формат/Информация : Audio Coding 3
Коммерческое название : Dolby Digital
Режим смешивания : Header stripping
Идентификатор кодека : A_AC3
Продолжительность : 1 ч. 39 м.
Вид битрейта : Постоянный
Битрейт : 192 Кбит/сек
Каналы : 2 канала
Channel layout : L R
Частота : 48,0 КГц
Частота кадров : 31,250 кадров/сек (1536 SPF)
Битовая глубина : 16 бит
Метод сжатия : С потерями
Размер потока : 136 Мбайт (1%)
Заголовок : AC3 2.0 @ 192 kbps - Дубляж
Язык : German
ServiceKind/Str.ing : Complete Main
Default : Нет
Forced : Нет

Аудио #13
Идентификатор : 14
Формат : FLAC
Формат/Информация : Free Lossless Audio Codec
Идентификатор кодека : A_FLAC
Продолжительность : 1 ч. 39 м.
Вид битрейта : Переменный
Каналы : 2 канала
Channel layout : L R
Частота : 48,0 КГц
Битовая глубина : 16 бит
Метод сжатия : Без потерь
Заголовок : FLAC 2.0 @ 270 kbps
Библиотека кодирования : libFLAC 1.2.1 (UTC 2007-09-17)
Язык : French
Default : Нет
Forced : Нет

Текст #1
Идентификатор : 15
Формат : UTF-8
Идентификатор кодека : S_TEXT/UTF8
Идентификатор кодека/Информация : UTF-8 Plain Text
Язык : Russian
Default : Нет
Forced : Нет

Текст #2
Идентификатор : 16
Формат : UTF-8
Идентификатор кодека : S_TEXT/UTF8
Идентификатор кодека/Информация : UTF-8 Plain Text
Язык : English
Default : Нет
Forced : Нет

Текст #3
Идентификатор : 17
Формат : UTF-8
Идентификатор кодека : S_TEXT/UTF8
Идентификатор кодека/Информация : UTF-8 Plain Text
Язык : French
Default : Нет
Forced : Нет

Текст #4
Идентификатор : 18
Формат : PGS
Режим смешивания : zlib
Идентификатор кодека : S_HDMV/PGS
Идентификатор кодека/Информация : Picture based subtitle format used on BDs/HD-DVDs
Язык : French
Default : Нет
Forced : Нет

Меню
00:00:00.000 : en:Chapter 1
00:09:05.458 : en:Chapter 2
00:16:55.916 : en:Chapter 3
00:25:09.750 : en:Chapter 4
00:33:30.541 : en:Chapter 5
00:42:18.875 : en:Chapter 6
00:50:18.041 : en:Chapter 7
00:59:56.666 : en:Chapter 8
01:07:00.166 : en:Chapter 9
01:15:11.125 : en:Chapter 10
01:26:04.333 : en:Chapter 11
01:32:35.791 : en:Chapter 12
Скриншоты
 

Вложения

  • 63,2 KB Просмотры: 1
    Личеров 0
    Сидеров 0
    Файлов 1
    Объем 12,4 GB

Привет!

Мы группа людей которые решили помочь другим в решении их проблем, а так же пользователям с поиском самых свежих и качественных инфопродуктов. За 4 с небольшим месяца мы создали этот форум на который заходят ежедневно тысячи человек и посещаемость постоянно растёт. Мы создали панель лицензирования для защиты PHP скриптов от воровства и SEO панель для мониторинга наших сайтов и выбора верной стратегии их развития. Мы надеемся что то что мы создали пригодится Вам и возможно Вы поможете нам развиваться и совершенствоваться вместе с Вами.

Статистика форума

Темы
406.543
Сообщения
464.663
Пользователи
83.281
Новый пользователь
antonicolt

Приложения форума для iOS и Android


У ркн там нет власти ;)
Приватные разговоры
Помощь Пользователи
    Вы не присоединились ни к одной комнате.