За последнюю неделю опубликовано 27 новых материалов.
Инструкция новичку Путеводитель по форуму Прокси для Telegram Показать подсказки , это бомба!

Скачать Жандарм и инопланетяне / Le gendarme et les extra-terrestres (1978) BDRip 1080p | D, P, A бесплатно через торрент

  • Поучаствуй (в качестве покупателя) в любых пяти совместных покупках (кроме завершённых и "Моментальных") и получи группу "Новичок" навсегда -> ссылка на раздел
  • Получай до 480 рублей за каждого приглашенного пользователя!
    представляем Вам очередное расширение партнерской программы, подробности описаны тут -> ссылка
  • 90% материалов доступно к скачиванию после простой регистрации!
    Если же ты хочешь скачивать материалы без требования оставлять отзывы то получи группу "Новичок", 10 способов повышения описаны тут -> ссылка
  • К сожалению количество битых ссылок растет и мы уже не можем их оперативно восстанавливать поэтому просим помощи у каждого нашего пользователя.
    С сегодняшнего дня, за каждую восстановленную ссылку мы заплатим Вам.
    Подробнее тут -> ссылка
  • Перенесем твои заслуги с другого ресурса!
    Мы понимаем как сложно прокачивать аккаунты на форумах, вроде раскачал аккаунт, а тут появляется ресурс в 100 раз круче но тоже с системой прокачки и снова качать аккаунт...
    Предлагаем вам перенести Ваши заслуги на другом подобном ресурсе к нам.
    Подробности описаны тут -> ссылка
  • Вы можете получать по 2.5% с каждой покупки и продажи на маркете! Подробности в теме Партнёрская программа
Если Вы не хотите скачивать, Вы всегда можетепосмотретьонлайн, просто нажмите кнопку ниже :

Открыть плеер

Torrent_Bot

Торрент-Бот
Бот форума
4 Окт 2016
93
156
20
Информация о фильме
Название: Жандарм и инопланетяне
Оригинальное название: Le gendarme et les extra-terrestres
Год выхода: 1978
Жанр: фантастика, комедия, криминал
Режиссер: Жан Жиро
В ролях: Луи де Фюнес, Мишель Галабрю, Морис Риш, Жан-Пьер Рамбаль, Ги Гроссо, Мишель Модо, Франс Румилли, Жан-Роже Коссимон, Марио Давид, Жак Франсуа
Роли дублировали:: Михаил Глузский, Феликс Яворский, Юрий Саранцев

Описание:
Все земные враги уже побеждены бесстрашным отрядом жандармов и их сержантом Крюшо. Осталось помериться силами с пришельцами. И они действительно высаживаются в окрестностях Сен-Тропеза. Коварные существа не выступают в своем истинном злобном обличье.

Они принимают вид самих жандармов, отличаясь от людей только тем, что пьют масло и ржавеют от воды… Это приводит к бесчисленным комическим ситуациям и неизвестно, что бы случилось с землей, если бы не доходящее до идиотизма мужество сержанта Крюшо.



Страна: Франция
Продолжительность: 01:31:38
Перевод: Профессиональный (многоголосый, закадровый) + Дублированный + Авторский (одноголосый, закадровый)
Субтитры: Русские, Французские, Английские

Файл
Формат: MKV
Качество: BDRip 1080p
Видео: AVC/H.264, 1806x1080, ~18.9 Mbps
Аудио 01: AC3, 2 ch, 192 kbps - Русский, дубляж (киностудия "Мосфильм")
Аудио 02: AC3, 2 ch, 192 kbps - Русский, многоголосый закадровый (НТВ)
Аудио 03: AC3, 2 ch, 192 kbps - Русский, многоголосый закадровый (Twister / Тивионика)
Аудио 04: AC3, 2 ch, 192 kbps - Русский, многоголосый закадровый (РенТВ)
Аудио 05: AC3, 2 ch, 192 kbps - Русский, многоголосый закадровый (Останкино)
Аудио 06: AC3, 2 ch, 192 kbps - Русский, многоголосый закадровый (ОРТ)
Аудио 07: AC3, 2 ch, 192 kbps - Русский, одноголосый (К. Дьяконов)
Аудио 08: AC3, 2 ch, 192 kbps - Русский, одноголосый (С. Козлов)
Аудио 09: AC3, 2 ch, 192 kbps - Русский, одноголосый (Л. Володарский #1)
Аудио 10: AC3, 2 ch, 192 kbps - Русский, одноголосый (Л. Володарский #2)
Аудио 11: AC3, 2 ch, 192 kbps - Украинский, многоголосый закадровый
Аудио 12: AC3, 2 ch, 192 kbps - Немецкий, дублированный
Аудио 13: FLAC, 2 ch, 357 kbps - Французский

Знаете ли вы, что...
Основная сюжетная линия фильма пародирует американский фильм «Вторжение похитителей тел» 1954 г.

Фильм занимает 82-е место по посещаемости среди зарубежных фильмов в советском кинопрокате.

Людовик Крюшо ездит на зеленом Citroën Méhari.
О звуковых дорожках
В данном релизе собраны все доступные звуковые дорожки.

Добавлен второй перевод Л.Володарского, вероятно более поздний. Качество очень хорошее.

Заодно полностью переделан первый перевод Л.Володарского. Чистка, синхрон, очень шумные фрагменты без перевода (следствие работы АРУЗа) заменены на другие. Теперь дорожка слушается более комфортно.
M/i
Общее
Уникальный идентификатор : 250026903221343620991361234963207033274 (0xBC196E1346D795B69D5A8AD7E50411BA)
Полное имя : Le.gendarme.et.les.extra-terrestres.1979.1080p.BluRay.10xRus.Ukr.Ger.Fre.mkv
Формат : Matroska
Версия формата : Version 2
Размер файла : 13,8 Гбайт
Продолжительность : 1 ч. 31 м.
Режим общего битрейта : Переменный
Общий поток : 21,5 Мбит/сек
Название фильма : Le gendarme et les extra-terrestres (1979)
Дата кодирования : UTC 2018-09-16 12:16:17
Программа кодирования : mkvmerge v5.8.0 ('No Sleep / Pillow') built on Sep 2 2012 15:37:04
Библиотека кодирования : libebml v1.2.3 + libmatroska v1.3.0
Обложка : Yes
Attachments : cover.jpg / xlog.txt

Видео
Идентификатор : 1
Формат : AVC
Формат/Информация : Advanced Video Codec
Профиль формата : High@L4.1
Настройки формата : CABAC / 4 Ref Frames
Параметр CABAC формата : Да
Параметр RefFrames формата : 4 кадра
Режим смешивания : Header stripping
Идентификатор кодека : V_MPEG4/ISO/AVC
Продолжительность : 1 ч. 31 м.
Ширина : 1806 пикселей
Высота : 1080 пикселей
Соотношение сторон : 5:3
Режим частоты кадров : Постоянный
Частота кадров : 24,000 кадра/сек
Цветовое пространство : YUV
Субдискретизация насыщенности : 4:2:0
Битовая глубина : 8 бит
Тип развёртки : Прогрессивная
Заголовок : Release for HDCLUB
Библиотека кодирования : x264 core 128 r2216kMod 198a7ea
Настройки программы : cabac=1 / ref=4 / deblock=1:-3:-3 / analyse=0x3:0x113 / me=umh / subme=11 / psy=1 / fade_compensate=0.00 / psy_rd=1.00:0.00 / mixed_ref=1 / me_range=48 / chroma_me=1 / trellis=2 / 8x8dct=1 / cqm=0 / deadzone=6,6 / fast_pskip=1 / chroma_qp_offset=-2 / threads=12 / lookahead_threads=2 / sliced_threads=0 / nr=0 / decimate=1 / interlaced=0 / bluray_compat=0 / constrained_intra=0 / bframes=16 / b_pyramid=2 / b_adapt=2 / b_bias=0 / direct=3 / weightb=1 / open_gop=0 / weightp=2 / keyint=250 / keyint_min=24 / scenecut=40 / intra_refresh=0 / rc_lookahead=240 / rc=crf / mbtree=1 / crf=22.0000 / qcomp=0.90 / qpmin=0 / qpmax=69 / qpstep=4 / vbv_maxrate=50000 / vbv_bufsize=62500 / crf_max=0.0 / nal_hrd=none / ip_ratio=1.10 / aq=1:0.50
Язык : French
Default : Да
Forced : Нет
Цветовой диапазон : Limited
Коэффициенты матрицы : BT.709

Аудио #1
Идентификатор : 2
Формат : AC-3
Формат/Информация : Audio Coding 3
Коммерческое название : Dolby Digital
Режим смешивания : Header stripping
Идентификатор кодека : A_AC3
Продолжительность : 1 ч. 31 м.
Вид битрейта : Постоянный
Битрейт : 192 Кбит/сек
Каналы : 2 канала
Channel layout : L R
Частота : 48,0 КГц
Частота кадров : 31,250 кадров/сек (1536 SPF)
Битовая глубина : 16 бит
Метод сжатия : С потерями
Размер потока : 126 Мбайт (1%)
Заголовок : AC3 2.0 @ 192 kbps - Дубляж, киностудия "Мосфильм"
Язык : Russian
ServiceKind/Str.ing : Complete Main
Default : Да
Forced : Нет

Аудио #2
Идентификатор : 3
Формат : AC-3
Формат/Информация : Audio Coding 3
Коммерческое название : Dolby Digital
Режим смешивания : Header stripping
Идентификатор кодека : A_AC3
Продолжительность : 1 ч. 31 м.
Вид битрейта : Постоянный
Битрейт : 192 Кбит/сек
Каналы : 2 канала
Channel layout : L R
Частота : 48,0 КГц
Частота кадров : 31,250 кадров/сек (1536 SPF)
Битовая глубина : 16 бит
Метод сжатия : С потерями
Размер потока : 126 Мбайт (1%)
Заголовок : AC3 2.0 @ 192 kbps - Многоголосый, НТВ
Язык : Russian
ServiceKind/Str.ing : Complete Main
Default : Нет
Forced : Нет

Аудио #3
Идентификатор : 4
Формат : AC-3
Формат/Информация : Audio Coding 3
Коммерческое название : Dolby Digital
Режим смешивания : Header stripping
Идентификатор кодека : A_AC3
Продолжительность : 1 ч. 31 м.
Вид битрейта : Постоянный
Битрейт : 192 Кбит/сек
Каналы : 2 канала
Channel layout : L R
Частота : 48,0 КГц
Частота кадров : 31,250 кадров/сек (1536 SPF)
Битовая глубина : 16 бит
Метод сжатия : С потерями
Размер потока : 126 Мбайт (1%)
Заголовок : AC3 2.0 @ 192 kbps - Многоголосый, Twister/Тивионика
Язык : Russian
ServiceKind/Str.ing : Complete Main
Default : Нет
Forced : Нет

Аудио #4
Идентификатор : 5
Формат : AC-3
Формат/Информация : Audio Coding 3
Коммерческое название : Dolby Digital
Режим смешивания : Header stripping
Идентификатор кодека : A_AC3
Продолжительность : 1 ч. 31 м.
Вид битрейта : Постоянный
Битрейт : 192 Кбит/сек
Каналы : 2 канала
Channel layout : L R
Частота : 48,0 КГц
Частота кадров : 31,250 кадров/сек (1536 SPF)
Битовая глубина : 16 бит
Метод сжатия : С потерями
Размер потока : 126 Мбайт (1%)
Заголовок : AC3 2.0 @ 192 kbps - Многоголосый, РенТВ
Язык : Russian
ServiceKind/Str.ing : Complete Main
Default : Нет
Forced : Нет

Аудио #5
Идентификатор : 6
Формат : AC-3
Формат/Информация : Audio Coding 3
Коммерческое название : Dolby Digital
Режим смешивания : Header stripping
Идентификатор кодека : A_AC3
Продолжительность : 1 ч. 31 м.
Вид битрейта : Постоянный
Битрейт : 192 Кбит/сек
Каналы : 2 канала
Channel layout : L R
Частота : 48,0 КГц
Частота кадров : 31,250 кадров/сек (1536 SPF)
Битовая глубина : 16 бит
Метод сжатия : С потерями
Размер потока : 126 Мбайт (1%)
Заголовок : AC3 2.0 @ 192 kbps - Многоголосый, Останкино
Язык : Russian
ServiceKind/Str.ing : Complete Main
Default : Нет
Forced : Нет

Аудио #6
Идентификатор : 7
Формат : AC-3
Формат/Информация : Audio Coding 3
Коммерческое название : Dolby Digital
Режим смешивания : Header stripping
Идентификатор кодека : A_AC3
Продолжительность : 1 ч. 31 м.
Вид битрейта : Постоянный
Битрейт : 192 Кбит/сек
Каналы : 2 канала
Channel layout : L R
Частота : 48,0 КГц
Частота кадров : 31,250 кадров/сек (1536 SPF)
Битовая глубина : 16 бит
Метод сжатия : С потерями
Размер потока : 126 Мбайт (1%)
Заголовок : AC3 2.0 @ 192 kbps - Многоголосый, ОРТ
Язык : Russian
ServiceKind/Str.ing : Complete Main
Default : Нет
Forced : Нет

Аудио #7
Идентификатор : 8
Формат : AC-3
Формат/Информация : Audio Coding 3
Коммерческое название : Dolby Digital
Режим смешивания : Header stripping
Идентификатор кодека : A_AC3
Продолжительность : 1 ч. 31 м.
Вид битрейта : Постоянный
Битрейт : 192 Кбит/сек
Каналы : 2 канала
Channel layout : L R
Частота : 48,0 КГц
Частота кадров : 31,250 кадров/сек (1536 SPF)
Битовая глубина : 16 бит
Метод сжатия : С потерями
Размер потока : 126 Мбайт (1%)
Заголовок : AC3 2.0 @ 192 kbps - Одноголосый, К. Дьяконов
Язык : Russian
ServiceKind/Str.ing : Complete Main
Default : Нет
Forced : Нет

Аудио #8
Идентификатор : 9
Формат : AC-3
Формат/Информация : Audio Coding 3
Коммерческое название : Dolby Digital
Режим смешивания : Header stripping
Идентификатор кодека : A_AC3
Продолжительность : 1 ч. 31 м.
Вид битрейта : Постоянный
Битрейт : 192 Кбит/сек
Каналы : 2 канала
Channel layout : L R
Частота : 48,0 КГц
Частота кадров : 31,250 кадров/сек (1536 SPF)
Битовая глубина : 16 бит
Метод сжатия : С потерями
Размер потока : 126 Мбайт (1%)
Заголовок : AC3 2.0 @ 192 kbps - Одноголосый, С. Козлов
Язык : Russian
ServiceKind/Str.ing : Complete Main
Default : Нет
Forced : Нет

Аудио #9
Идентификатор : 10
Формат : AC-3
Формат/Информация : Audio Coding 3
Коммерческое название : Dolby Digital
Режим смешивания : Header stripping
Идентификатор кодека : A_AC3
Продолжительность : 1 ч. 31 м.
Вид битрейта : Постоянный
Битрейт : 192 Кбит/сек
Каналы : 2 канала
Channel layout : L R
Частота : 48,0 КГц
Частота кадров : 31,250 кадров/сек (1536 SPF)
Битовая глубина : 16 бит
Метод сжатия : С потерями
Размер потока : 126 Мбайт (1%)
Заголовок : AC3 2.0 @ 192 kbps - Одноголосый, Л. Володарский #1
Язык : Russian
ServiceKind/Str.ing : Complete Main
Default : Нет
Forced : Нет

Аудио #10
Идентификатор : 11
Формат : AC-3
Формат/Информация : Audio Coding 3
Коммерческое название : Dolby Digital
Режим смешивания : Header stripping
Идентификатор кодека : A_AC3
Продолжительность : 1 ч. 31 м.
Вид битрейта : Постоянный
Битрейт : 192 Кбит/сек
Каналы : 2 канала
Channel layout : L R
Частота : 48,0 КГц
Частота кадров : 31,250 кадров/сек (1536 SPF)
Битовая глубина : 16 бит
Метод сжатия : С потерями
Размер потока : 126 Мбайт (1%)
Заголовок : AC3 2.0 @ 192 kbps - Одноголосый, Л. Володарский #2
Язык : Russian
ServiceKind/Str.ing : Complete Main
Default : Нет
Forced : Нет

Аудио #11
Идентификатор : 12
Формат : AC-3
Формат/Информация : Audio Coding 3
Коммерческое название : Dolby Digital
Режим смешивания : Header stripping
Идентификатор кодека : A_AC3
Продолжительность : 1 ч. 31 м.
Вид битрейта : Постоянный
Битрейт : 192 Кбит/сек
Каналы : 2 канала
Channel layout : L R
Частота : 48,0 КГц
Частота кадров : 31,250 кадров/сек (1536 SPF)
Битовая глубина : 16 бит
Метод сжатия : С потерями
Размер потока : 126 Мбайт (1%)
Заголовок : AC3 2.0 @ 192 kbps - Многоголосый
Язык : Ukrainian
ServiceKind/Str.ing : Complete Main
Default : Нет
Forced : Нет

Аудио #12
Идентификатор : 13
Формат : AC-3
Формат/Информация : Audio Coding 3
Коммерческое название : Dolby Digital
Режим смешивания : Header stripping
Идентификатор кодека : A_AC3
Продолжительность : 1 ч. 31 м.
Вид битрейта : Постоянный
Битрейт : 192 Кбит/сек
Каналы : 2 канала
Channel layout : L R
Частота : 48,0 КГц
Частота кадров : 31,250 кадров/сек (1536 SPF)
Битовая глубина : 16 бит
Метод сжатия : С потерями
Размер потока : 126 Мбайт (1%)
Заголовок : AC3 2.0 @ 192 kbps - Дубляж
Язык : German
ServiceKind/Str.ing : Complete Main
Default : Нет
Forced : Нет

Аудио #13
Идентификатор : 14
Формат : FLAC
Формат/Информация : Free Lossless Audio Codec
Идентификатор кодека : A_FLAC
Продолжительность : 1 ч. 31 м.
Вид битрейта : Переменный
Каналы : 2 канала
Channel layout : L R
Частота : 48,0 КГц
Битовая глубина : 16 бит
Метод сжатия : Без потерь
Заголовок : FLAC 2.0 @ 357 kbps
Библиотека кодирования : libFLAC 1.2.1 (UTC 2007-09-17)
Язык : French
Default : Нет
Forced : Нет

Текст #1
Идентификатор : 15
Формат : UTF-8
Идентификатор кодека : S_TEXT/UTF8
Идентификатор кодека/Информация : UTF-8 Plain Text
Язык : Russian
Default : Нет
Forced : Нет

Текст #2
Идентификатор : 16
Формат : UTF-8
Идентификатор кодека : S_TEXT/UTF8
Идентификатор кодека/Информация : UTF-8 Plain Text
Язык : English
Default : Нет
Forced : Нет

Текст #3
Идентификатор : 17
Формат : UTF-8
Идентификатор кодека : S_TEXT/UTF8
Идентификатор кодека/Информация : UTF-8 Plain Text
Язык : French
Default : Нет
Forced : Нет

Текст #4
Идентификатор : 18
Формат : PGS
Режим смешивания : zlib
Идентификатор кодека : S_HDMV/PGS
Идентификатор кодека/Информация : Picture based subtitle format used on BDs/HD-DVDs
Язык : French
Default : Нет
Forced : Нет

Меню
00:00:00.000 : en:Chapter 1
00:08:17.792 : en:Chapter 2
00:16:47.750 : en:Chapter 3
00:24:34.583 : en:Chapter 4
00:32:16.042 : en:Chapter 5
00:39:35.083 : en:Chapter 6
00:44:23.375 : en:Chapter 7
00:50:34.667 : en:Chapter 8
00:59:43.833 : en:Chapter 9
01:07:45.375 : en:Chapter 10
01:15:13.708 : en:Chapter 11
01:21:01.000 : en:Chapter 12
Скриншоты
 

Вложения

  • 69,9 KB Просмотры: 1
    Личеров 0
    Сидеров 0
    Файлов 1
    Объем 13,8 GB

Привет!

Мы группа людей которые решили помочь другим в решении их проблем, а так же пользователям с поиском самых свежих и качественных инфопродуктов. За 4 с небольшим месяца мы создали этот форум на который заходят ежедневно тысячи человек и посещаемость постоянно растёт. Мы создали панель лицензирования для защиты PHP скриптов от воровства и SEO панель для мониторинга наших сайтов и выбора верной стратегии их развития. Мы надеемся что то что мы создали пригодится Вам и возможно Вы поможете нам развиваться и совершенствоваться вместе с Вами.

Статистика форума

Темы
406.549
Сообщения
464.713
Пользователи
83.421
Новый пользователь
turbocar

Приложения форума для iOS и Android


У ркн там нет власти ;)
Приватные разговоры
Помощь Пользователи
    Вы не присоединились ни к одной комнате.