За последнюю неделю опубликовано 28 новых материалов.
Инструкция новичку Путеводитель по форуму Прокси для Telegram Показать подсказки , это бомба!

Скачать Жан де Флоретт + Манон с источника / Jean de Florette + Manon des sources (1986) BDRip 720p от KORSAR | P, P2 бесплатно через торрент

  • Поучаствуй (в качестве покупателя) в любых пяти совместных покупках (кроме завершённых и "Моментальных") и получи группу "Новичок" навсегда -> ссылка на раздел
  • Получай до 480 рублей за каждого приглашенного пользователя!
    представляем Вам очередное расширение партнерской программы, подробности описаны тут -> ссылка
  • 90% материалов доступно к скачиванию после простой регистрации!
    Если же ты хочешь скачивать материалы без требования оставлять отзывы то получи группу "Новичок", 10 способов повышения описаны тут -> ссылка
  • К сожалению количество битых ссылок растет и мы уже не можем их оперативно восстанавливать поэтому просим помощи у каждого нашего пользователя.
    С сегодняшнего дня, за каждую восстановленную ссылку мы заплатим Вам.
    Подробнее тут -> ссылка
  • Перенесем твои заслуги с другого ресурса!
    Мы понимаем как сложно прокачивать аккаунты на форумах, вроде раскачал аккаунт, а тут появляется ресурс в 100 раз круче но тоже с системой прокачки и снова качать аккаунт...
    Предлагаем вам перенести Ваши заслуги на другом подобном ресурсе к нам.
    Подробности описаны тут -> ссылка
  • Вы можете получать по 2.5% с каждой покупки и продажи на маркете! Подробности в теме Партнёрская программа
Если Вы не хотите скачивать, Вы всегда можетепосмотретьонлайн, просто нажмите кнопку ниже :

Открыть плеер

Torrent_Bot

Торрент-Бот
Бот форума
4 Окт 2016
93
156
20
Страна: Швейцария, Франция, Италия
Жанр: драма
Год выпуска: 1986
Продолжительность: 02:01:27 + 01:53:51
Перевод: Профессиональный (многоголосый, закадровый), Профессиональный (двухголосый, закадровый).
Субтитры: русские, французкие, английские.






Жан де Флоретт / Jean de Florette (1986) BDRip 720p
Жан де Флоретт
Jean de Florette


Страна: Швейцария, Франция, Италия
Жанр: драма
Год выпуска: 1986
Продолжительность: 02:01:27
Перевод: Профессиональный (многоголосый, закадровый), Профессиональный (двухголосый, закадровый).
Субтитры: русские, французкие, английские.


Режиссер: Клод Берри / Claude Berri


В ролях: Ив Монтан(Cesar Soubeyran dit «Le Papet»), Жерар Депардье(Jean de Florette), Даниель Отой(Ugolin), Элизабет Депардье(Aimee Cadoret), Маргарита Лосано(Baptistine), Эрнестин Мазуровна(Manon Cadoret enfant), Арман Меффр(Philoxéne), Андре Дюпон(Pamphile, le menuisier), Пьер Нугаро(Casimir), Жан Морель(Anglade), Роже Суза(Ange), Дидье Пэн(Eliacin)


Описание: Вернувшись с военной службы, молодой Юголен решил выращивать цветы, но гвоздикам нужна вода. Богатый дядюшка готов помочь племяннику в надежде, что тот продолжит его род. Он решил прикупить поле с родником у соседа-врага.





Качество: BDRip 720p
Контейнер: MKV

Видео: MPEG-4 AVC, 1280x544 (2.35:1), 9000 kbps, 23,976 fps, 0,539 bpp
Аудио №1: русский / AC3 / 5.1 / 48 kHz / 448 kbps / MVO ( CP Digital )
Аудио №2: русский / AC3 / 2.0 / 48 kHz / 192 kbps / DVO ( СВ-Дубль )
Аудио №3: французский / AC3 / 5.1 / 48 kHz / 640 kbps
Навигация по главам: есть


Media Info + Скриншоты
***********************************************************************************************


***********************************************************************************************
Формат : Matroska
Версия формата : Version 2
Размер файла : 8,72 Гбайт
Продолжительность : 2 ч. 1 м.
Общий поток : 10,3 Мбит/сек
Название фильма : = Жан де Флоретт / Jean de Florette (1986) BDRip 720p - KORSAR =
Дата кодирования : UTC 2018-09-10 10:45:23
Программа кодирования : mkvmerge v5.8.0 ('No Sleep / Pillow') built on Sep 2 2012 15:37:04
Библиотека кодирования : libebml v1.2.3 + libmatroska v1.3.0
Attachment : Yes

Видео
Идентификатор : 1
Формат : AVC
Формат/Информация : Advanced Video Codec
Профиль формата : [email protected]
Параметр CABAC формата : Да
Параметр ReFrames формата : 12 кадров
Идентификатор кодека : V_MPEG4/ISO/AVC
Продолжительность : 2 ч. 1 м.
Битрейт : 9000 Кбит/сек
Ширина : 1280 пикселей
Высота : 544 пикселя
Соотношение сторон : 2,35:1
Режим частоты кадров : Постоянный
Частота кадров : 23,976 кадра/сек
Цветовое пространство : YUV
Субдискретизация насыщенности : 4:2:0
Битовая глубина : 8 бит
Тип развёртки : Прогрессивная
Бит/(Пиксели*Кадры) : 0.539
Размер потока : 7,46 Гбайт (86%)
Заголовок : Жан де Флоретт / Jean de Florette (1986) BDRip 720p - KORSAR
Библиотека кодирования : x264 core 148 r2744kMod b97ae06
Настройки программы : cabac=1 / ref=12 / deblock=1:-2:-2 / analyse=0x3:0x113 / me=umh / subme=11 / psy=1 / fade_compensate=0.00 / psy_rd=1.02:0.06 / mixed_ref=1 / me_range=32 / chroma_me=1 / trellis=2 / 8x8dct=1 / cqm=0 / deadzone=21,11 / fast_pskip=0 / chroma_qp_offset=-3 / threads=12 / lookahead_threads=3 / sliced_threads=0 / nr=0 / decimate=0 / interlaced=0 / bluray_compat=0 / constrained_intra=0 / bframes=12 / b_pyramid=2 / b_adapt=2 / b_bias=0 / direct=3 / weightb=1 / open_gop=0 / weightp=2 / keyint=240 / keyint_min=23 / scenecut=40 / intra_refresh=0 / rc_lookahead=60 / rc=2pass / mbtree=0 / bitrate=9000 / ratetol=1.0 / qcomp=0.68 / qpmin=0 / qpmax=39 / qpstep=4 / cplxblur=20.0 / qblur=0.5 / vbv_maxrate=50000 / vbv_bufsize=62500 / nal_hrd=none / filler=0 / ip_ratio=1.40 / pb_ratio=1.30 / aq=3:0.80
Язык : French
Default : Да
Forced : Нет
Основные цвета : BT.709
Характеристики трансфера : BT.709
Коэффициенты матрицы : BT.709

Аудио #1
Идентификатор : 2
Формат : AC-3
Формат/Информация : Audio Coding 3
Расширение режима : CM (complete main)
Параметр Endianness формата : Big
Идентификатор кодека : A_AC3
Продолжительность : 2 ч. 1 м.
Вид битрейта : Постоянный
Битрейт : 448 Кбит/сек
Каналы : 6 каналов
Расположение каналов : Front: L C R, Side: L R, LFE
Частота : 48,0 КГц
Битовая глубина : 16 бит
Метод сжатия : С потерями
Размер потока : 389 Мбайт (4%)
Заголовок : MVO ( CP Digital )
Язык : Russian
Default : Да
Forced : Нет

Аудио #2
Идентификатор : 3
Формат : AC-3
Формат/Информация : Audio Coding 3
Расширение режима : CM (complete main)
Параметр Endianness формата : Big
Идентификатор кодека : A_AC3
Продолжительность : 2 ч. 1 м.
Вид битрейта : Постоянный
Битрейт : 192 Кбит/сек
Каналы : 2 канала
Расположение каналов : Front: L R
Частота : 48,0 КГц
Битовая глубина : 16 бит
Метод сжатия : С потерями
Размер потока : 167 Мбайт (2%)
Заголовок : DVO ( СВ-Дубль )
Язык : Russian
Default : Нет
Forced : Нет

Аудио #3
Идентификатор : 4
Формат : AC-3
Формат/Информация : Audio Coding 3
Расширение режима : CM (complete main)
Параметр Endianness формата : Big
Идентификатор кодека : A_AC3
Продолжительность : 2 ч. 1 м.
Вид битрейта : Постоянный
Битрейт : 640 Кбит/сек
Каналы : 6 каналов
Расположение каналов : Front: L C R, Side: L R, LFE
Частота : 48,0 КГц
Битовая глубина : 16 бит
Метод сжатия : С потерями
Размер потока : 556 Мбайт (6%)
Язык : French
Default : Нет
Forced : Нет

Текст #1
Идентификатор : 5
Формат : UTF-8
Идентификатор кодека : S_TEXT/UTF8
Идентификатор кодека/Информация : UTF-8 Plain Text
Язык : Russian
Default : Нет
Forced : Нет

Текст #2
Идентификатор : 6
Формат : UTF-8
Идентификатор кодека : S_TEXT/UTF8
Идентификатор кодека/Информация : UTF-8 Plain Text
Язык : French
Default : Нет
Forced : Нет

Текст #3
Идентификатор : 7
Формат : UTF-8
Идентификатор кодека : S_TEXT/UTF8
Идентификатор кодека/Информация : UTF-8 Plain Text
Язык : English
Default : Нет
Forced : Нет

Меню
00:00:00.000 : en:00:00:00.000
00:12:50.186 : en:00:12:50.186
00:21:48.182 : en:00:21:48.182
00:27:55.173 : en:00:27:55.173
00:37:34.169 : en:00:37:34.169
00:50:20.017 : en:00:50:20.017
00:59:02.289 : en:00:59:02.289
01:11:37.293 : en:01:11:37.293
01:18:30.956 : en:01:18:30.956
01:32:15.196 : en:01:32:15.196
01:41:20.700 : en:01:41:20.700
01:52:41.755 : en:01:52:41.755
Манон с источника / Manon des sources (1986) BDRip 720p
Манон с источника
Manon des sources


Страна: Франция
Жанр: драма
Год выпуска: 1986
Продолжительность: 01:53:51
Перевод: Профессиональный (многоголосый, закадровый)
Субтитры: русские, французкие.


Режиссер: Клод Берри / Claude Berri


В ролях: Ив Монтан(Cesar Soubeyran dit «Le Papet»), Даниель Отой(Ugolin), Эммануэль Беар(Manon), Ипполит Жирардо(Bernard Olivier), Маргарита Лосано(Baptistine), Ивонн Гами(Delphine), Тикки Ольгадо(Le Spécialiste), Жан Бушо(Le Curé), Элизабет Депардье(Aimee Cadoret), Габриэль Бакье(Victor), Арман Меффр(Philoxène), Андре Дюпон(Pamphile, le menuisier)


Описание: Вторая часть экранизации романа Марселя Паньоля. Манон было 8 лет, когда её отец-горбун умер, так и не найдя воду на своей земле. Ферму по дешевке прибирает семья Субейранов, когда-то специально засыпавшая источник.
Восемнадцатилетняя красавица-пастушка Манон, уединенно живущая в горах, узнает правду и отвергает притязания племянника главы семейства Юголина, доведя его до самоубийства. А потом перекрывает источник и оставляет ферму без воды…





Качество: BDRip 720p
Контейнер: MKV

Видео: MPEG-4 AVC, 1280x544 (2.35:1), 9000 kbps, 23,976 fps, 0,539 bpp
Аудио №1: русский / AC3 / 5.1 / 48 kHz / 448 kbps / MVO ( CP Digital )
Аудио №2: французский / AC3 / 5.1 / 48 kHz / 640 kbps


Media Info + Скриншоты
**********************************************************************************************


**********************************************************************************************
Формат : Matroska
Версия формата : Version 2
Размер файла : 8,02 Гбайт
Продолжительность : 1 ч. 53 м.
Общий поток : 10,1 Мбит/сек
Название фильма : = Манон с источника / Manon des sources (1986) BDRip 720p - KORSAR =
Дата кодирования : UTC 2018-09-08 06:24:09
Программа кодирования : mkvmerge v5.8.0 ('No Sleep / Pillow') built on Sep 2 2012 15:37:04
Библиотека кодирования : libebml v1.2.3 + libmatroska v1.3.0
Attachment : Yes

Видео
Идентификатор : 1
Формат : AVC
Формат/Информация : Advanced Video Codec
Профиль формата : [email protected]
Параметр CABAC формата : Да
Параметр ReFrames формата : 12 кадров
Идентификатор кодека : V_MPEG4/ISO/AVC
Продолжительность : 1 ч. 53 м.
Битрейт : 9000 Кбит/сек
Ширина : 1280 пикселей
Высота : 544 пикселя
Соотношение сторон : 2,35:1
Режим частоты кадров : Постоянный
Частота кадров : 23,976 кадра/сек
Цветовое пространство : YUV
Субдискретизация насыщенности : 4:2:0
Битовая глубина : 8 бит
Тип развёртки : Прогрессивная
Бит/(Пиксели*Кадры) : 0.539
Размер потока : 7,00 Гбайт (87%)
Заголовок : Манон с источника / Manon des sources (1986) BDRip 720p - KORSAR
Библиотека кодирования : x264 core 148 r2744kMod b97ae06
Настройки программы : cabac=1 / ref=12 / deblock=1:-2:-2 / analyse=0x3:0x113 / me=umh / subme=11 / psy=1 / fade_compensate=0.00 / psy_rd=1.02:0.04 / mixed_ref=1 / me_range=32 / chroma_me=1 / trellis=2 / 8x8dct=1 / cqm=0 / deadzone=21,11 / fast_pskip=0 / chroma_qp_offset=-3 / threads=12 / lookahead_threads=3 / sliced_threads=0 / nr=0 / decimate=0 / interlaced=0 / bluray_compat=0 / constrained_intra=0 / bframes=10 / b_pyramid=2 / b_adapt=2 / b_bias=0 / direct=3 / weightb=1 / open_gop=0 / weightp=2 / keyint=240 / keyint_min=23 / scenecut=40 / intra_refresh=0 / rc_lookahead=60 / rc=2pass / mbtree=0 / bitrate=9000 / ratetol=1.0 / qcomp=0.68 / qpmin=0 / qpmax=39 / qpstep=4 / cplxblur=20.0 / qblur=0.5 / vbv_maxrate=50000 / vbv_bufsize=62500 / nal_hrd=none / filler=0 / ip_ratio=1.40 / pb_ratio=1.30 / aq=3:0.80
Язык : French
Default : Да
Forced : Нет
Основные цвета : BT.709
Характеристики трансфера : BT.709
Коэффициенты матрицы : BT.709

Аудио #1
Идентификатор : 2
Формат : AC-3
Формат/Информация : Audio Coding 3
Расширение режима : CM (complete main)
Параметр Endianness формата : Big
Идентификатор кодека : A_AC3
Продолжительность : 1 ч. 53 м.
Вид битрейта : Постоянный
Битрейт : 448 Кбит/сек
Каналы : 6 каналов
Расположение каналов : Front: L C R, Side: L R, LFE
Частота : 48,0 КГц
Битовая глубина : 16 бит
Метод сжатия : С потерями
Размер потока : 365 Мбайт (4%)
Заголовок : MVO ( CP Digital )
Язык : Russian
Default : Да
Forced : Нет

Аудио #2
Идентификатор : 3
Формат : AC-3
Формат/Информация : Audio Coding 3
Расширение режима : CM (complete main)
Параметр Endianness формата : Big
Идентификатор кодека : A_AC3
Продолжительность : 1 ч. 53 м.
Вид битрейта : Постоянный
Битрейт : 640 Кбит/сек
Каналы : 6 каналов
Расположение каналов : Front: L C R, Side: L R, LFE
Частота : 48,0 КГц
Битовая глубина : 16 бит
Метод сжатия : С потерями
Размер потока : 521 Мбайт (6%)
Язык : French
Default : Нет
Forced : Нет

Текст #1
Идентификатор : 4
Формат : UTF-8
Идентификатор кодека : S_TEXT/UTF8
Идентификатор кодека/Информация : UTF-8 Plain Text
Язык : Russian
Default : Нет
Forced : Нет

Текст #2
Идентификатор : 5
Формат : UTF-8
Идентификатор кодека : S_TEXT/UTF8
Идентификатор кодека/Информация : UTF-8 Plain Text
Язык : French
Default : Нет
Forced : Нет
 

Вложения

  • 84,8 KB Просмотры: 1
    Личеров 0
    Сидеров 0
    Файлов 1
    Объем 16,7 GB

Привет!

Мы группа людей которые решили помочь другим в решении их проблем, а так же пользователям с поиском самых свежих и качественных инфопродуктов. За 4 с небольшим месяца мы создали этот форум на который заходят ежедневно тысячи человек и посещаемость постоянно растёт. Мы создали панель лицензирования для защиты PHP скриптов от воровства и SEO панель для мониторинга наших сайтов и выбора верной стратегии их развития. Мы надеемся что то что мы создали пригодится Вам и возможно Вы поможете нам развиваться и совершенствоваться вместе с Вами.

Статистика форума

Темы
406.553
Сообщения
464.733
Пользователи
83.476
Новый пользователь
glutomanium3003

Приложения форума для iOS и Android


У ркн там нет власти ;)
Приватные разговоры
Помощь Пользователи
    Вы не присоединились ни к одной комнате.