За последнюю неделю опубликовано 29 новых материалов.
Инструкция новичку Путеводитель по форуму Прокси для Telegram Показать подсказки , это бомба!

Скачать Зевс и Роксана / Zeus and Roxanne (1997) WEB-DLRip-AVC | P бесплатно через торрент

  • Поучаствуй (в качестве покупателя) в любых пяти совместных покупках (кроме завершённых и "Моментальных") и получи группу "Новичок" навсегда -> ссылка на раздел
  • Получай до 480 рублей за каждого приглашенного пользователя!
    представляем Вам очередное расширение партнерской программы, подробности описаны тут -> ссылка
  • 90% материалов доступно к скачиванию после простой регистрации!
    Если же ты хочешь скачивать материалы без требования оставлять отзывы то получи группу "Новичок", 10 способов повышения описаны тут -> ссылка
  • К сожалению количество битых ссылок растет и мы уже не можем их оперативно восстанавливать поэтому просим помощи у каждого нашего пользователя.
    С сегодняшнего дня, за каждую восстановленную ссылку мы заплатим Вам.
    Подробнее тут -> ссылка
  • Перенесем твои заслуги с другого ресурса!
    Мы понимаем как сложно прокачивать аккаунты на форумах, вроде раскачал аккаунт, а тут появляется ресурс в 100 раз круче но тоже с системой прокачки и снова качать аккаунт...
    Предлагаем вам перенести Ваши заслуги на другом подобном ресурсе к нам.
    Подробности описаны тут -> ссылка
  • Вы можете получать по 2.5% с каждой покупки и продажи на маркете! Подробности в теме Партнёрская программа
Если Вы не хотите скачивать, Вы всегда можетепосмотретьонлайн, просто нажмите кнопку ниже :

Открыть плеер

Torrent_Bot

Торрент-Бот
Бот форума
4 Окт 2016
122
127
20



Информация о фильме
Название: Зевс и Роксана
Оригинальное название: Zeus and Roxanne
Год выпуска: 1997
Выпущено: США, Metro-Goldwyn-Mayer (MGM), Rysher Entertainment
Жанр: Мелодрама, комедия, приключения, семейный
Режиссер: Джордж Миллер
В ролях: Стив Гуттенберг, Кэтлин Куинлен, Арнольд Вослу, Доун МакМиллан, Мико Хьюз, Махандра Делфино, Джессика Хауэлл, Шеннон К. Фоли, Джим Р. Коулмэн

О фильме:
Терри Барнетт пишет музыку на берегу океана, где живет в маленьком городке с сыном и милым смешным пёсиком по кличке Зевс. Зевс — жуткий проказник, и его за это не любит соседка Мэри Бет, называя блохастым и перенося свою неприязнь на владельцев. Она живет с двумя дочерьми и занимается изучением поведения дельфинов. Зевс проникает на борт ее судна и падает в воду, где много-много «диких акул»! Спасает его от зубастых хищников умный и добрый дельфин Роксанна. Зевс и Роксанна, конечно же, становятся лучшими друзьями, а их дружба, или «межвидовое общение», как это называет симпатичная ученая, сближает обе семьи.



Продолжительность: 01:38:09
Перевод: Профессиональный (многоголосый, закадровый)
Субтитры: Английские
Навигация по главам: Есть

Файл
Формат: Matroska
Качество: WEB-DLRip-AVC [исх.Amazon]
Видео: 706x398 at 23.976 fps, x264, ~994 kbps, 0.148 bpp
Аудио: AAC, 2 ch, ~64 kbps - | Русский | -
Формат субтитров: softsub (SRT)

***Релиз от:-=DoMiNo=-

M/I
General
Format : Matroska
Format version : Version 4
File size : 743 MiB
Duration : 1 h 38 min
Overall bit rate : 1 058 kb/s
Movie name : Зевс и Роксана.(1997).WEB-DLRip-AVC.F.S.[-=DoMiNo=-]
Encoded date : UTC 2019-11-23 06:56:59
Writing application : mkvmerge v40.0.0 ('Old Town Road + Pony') 64-bit
Writing library : libebml v1.3.9 + libmatroska v1.5.2
Attachments : poster.jpg / poster 2.jpg

Video
ID : 1
Format : AVC
Format/Info : Advanced Video Codec
Format profile : [email protected]
Format settings : CABAC / 16 Ref Frames
Format settings, CABAC : Yes
Format settings, Reference : 16 frames
Codec ID : V_MPEG4/ISO/AVC
Duration : 1 h 38 min
Bit rate : 994 kb/s
Width : 706 pixels
Height : 398 pixels
Display aspect ratio : 16:9
Frame rate mode : Constant
Frame rate : 23.976 (24000/1001) FPS
Color space : YUV
Chroma subsampling : 4:2:0
Bit depth : 8 bits
Scan type : Progressive
Bits/(Pixel*Frame) : 0.148
Stream size : 697 MiB (94%)
Title : RIP_BY_-=DoMiNo=-
Writing library : x264 core 158 r2988 7817004
Encoding settings : cabac=1 / ref=16 / deblock=1:-3:-3 / analyse=0x3:0x133 / me=umh / subme=11 / psy=1 / psy_rd=1.00:0.00 / mixed_ref=1 / me_range=48 / chroma_me=1 / trellis=2 / 8x8dct=1 / cqm=0 / deadzone=21,11 / fast_pskip=0 / chroma_qp_offset=-2 / threads=6 / lookahead_threads=1 / sliced_threads=0 / nr=0 / decimate=0 / interlaced=0 / bluray_compat=0 / constrained_intra=0 / bframes=16 / b_pyramid=2 / b_adapt=2 / b_bias=0 / direct=3 / weightb=1 / open_gop=0 / weightp=2 / keyint=250 / keyint_min=23 / scenecut=40 / intra_refresh=0 / rc_lookahead=100 / rc=2pass / mbtree=1 / bitrate=994 / ratetol=1.0 / qcomp=0.75 / qpmin=0 / qpmax=69 / qpstep=4 / cplxblur=20.0 / qblur=0.5 / vbv_maxrate=50000 / vbv_bufsize=62500 / nal_hrd=none / filler=0 / ip_ratio=1.40 / aq=3:1.00
Language : English
Default : Yes
Forced : No

Audio
ID : 2
Format : AAC LC SBR
Format/Info : Advanced Audio Codec Low Complexity with Spectral Band Replication
Commercial name : HE-AAC
Format settings : Explicit
Codec ID : A_AAC-2
Duration : 1 h 38 min
Bit rate : 62.7 kb/s
Channel(s) : 2 channels
Channel layout : L R
Sampling rate : 48.0 kHz
Frame rate : 23.438 FPS (2048 SPF)
Compression mode : Lossy
Stream size : 44.0 MiB (6%)
Title : MVO_[Paramount channel]
Language : Russian
Default : Yes
Forced : No

Text #1
ID : 3
Format : UTF-8
Codec ID : S_TEXT/UTF8
Codec ID/Info : UTF-8 Plain Text
Duration : 1 h 31 min
Bit rate : 32 b/s
Count of elements : 1010
Stream size : 21.8 KiB (0%)
Language : English
Default : No
Forced : No

Text #2
ID : 4
Format : UTF-8
Codec ID : S_TEXT/UTF8
Codec ID/Info : UTF-8 Plain Text
Duration : 1 h 31 min
Bit rate : 33 b/s
Count of elements : 1031
Stream size : 22.7 KiB (0%)
Title : SDH
Language : English
Default : No
Forced : No

Menu
00:00:00.000 : en:01. Openining Credits
00:03:39.212 : en:02. Like Cat And Dog
00:10:26.952 : en:03. Zeus And Roxanne Meet
00:17:16.320 : en:04. An Unusual Drowning Crearure
00:24:00.265 : en:05. Caught In The Act
00:30:01.918 : en:06. Competition For The Grant
00:45:16.623 : en:07. Zeus Is Watching
00:49:26.581 : en:08. Inter-Species Communication
00:53:01.296 : en:09. Pairing Off Is An Art
00:57:01.494 : en:10. Terry And Jordan Are Leaving
01:02:53.387 : en:11. Zeus And Roxanne miss each Other
01:13:59.761 : en:12. A Dog As Bait
01:18:58.518 : en:13. Submarine In Trouble
01:23:20.947 : en:14. Roxanne Shows The Wey
01:33:28.220 : en:15. End Credits
Скриншоты
 

Вложения

  • 15,6 KB Просмотры: 0
    Личеров 0
    Сидеров 0
    Файлов 1
    Объем 743 MB

Привет!

Мы группа людей которые решили помочь другим в решении их проблем, а так же пользователям с поиском самых свежих и качественных инфопродуктов. За 4 с небольшим месяца мы создали этот форум на который заходят ежедневно тысячи человек и посещаемость постоянно растёт. Мы создали панель лицензирования для защиты PHP скриптов от воровства и SEO панель для мониторинга наших сайтов и выбора верной стратегии их развития. Мы надеемся что то что мы создали пригодится Вам и возможно Вы поможете нам развиваться и совершенствоваться вместе с Вами.

Статистика форума

Темы
385.369
Сообщения
432.223
Пользователи
66.778
Новый пользователь
Samilina

Приложения форума для iOS и Android


У ркн там нет власти ;)
Приватные разговоры
Помощь Пользователи
    Вы не присоединились ни к одной комнате.