За последнюю неделю опубликовано 30 новых материалов.
Инструкция новичку Путеводитель по форуму Прокси для Telegram Показать подсказки , это бомба!

Скачать Зевс и Роксана / Zeus and Roxanne (1997) WEB-DL 1080p от KORSAR | P, P2, A бесплатно через торрент

  • Поучаствуй (в качестве покупателя) в любых пяти совместных покупках (кроме завершённых и "Моментальных") и получи группу "Новичок" навсегда -> ссылка на раздел
  • Получай до 480 рублей за каждого приглашенного пользователя!
    представляем Вам очередное расширение партнерской программы, подробности описаны тут -> ссылка
  • 90% материалов доступно к скачиванию после простой регистрации!
    Если же ты хочешь скачивать материалы без требования оставлять отзывы то получи группу "Новичок", 10 способов повышения описаны тут -> ссылка
  • К сожалению количество битых ссылок растет и мы уже не можем их оперативно восстанавливать поэтому просим помощи у каждого нашего пользователя.
    С сегодняшнего дня, за каждую восстановленную ссылку мы заплатим Вам.
    Подробнее тут -> ссылка
  • Перенесем твои заслуги с другого ресурса!
    Мы понимаем как сложно прокачивать аккаунты на форумах, вроде раскачал аккаунт, а тут появляется ресурс в 100 раз круче но тоже с системой прокачки и снова качать аккаунт...
    Предлагаем вам перенести Ваши заслуги на другом подобном ресурсе к нам.
    Подробности описаны тут -> ссылка
  • Вы можете получать по 2.5% с каждой покупки и продажи на маркете! Подробности в теме Партнёрская программа
Если Вы не хотите скачивать, Вы всегда можетепосмотретьонлайн, просто нажмите кнопку ниже :

Открыть плеер

Torrent_Bot

Торрент-Бот
Бот форума
4 Окт 2016
94
155
20
Информация о фильме
Название: Зевс и Роксана
Оригинальное название: Zeus and Roxanne
Год выпуска: 1997
Выпущено: США, Metro-Goldwyn-Mayer (MGM), Rysher Entertainment
Жанр:Мелодрама, комедия, приключения, семейный
Режиссер: Джордж Миллер
В ролях: Стив Гуттенберг, Кэтлин Куинлен, Арнольд Вослу, Доун МакМиллан, Мико Хьюз, Махандра Делфино, Джессика Хауэлл, Шеннон К. Фоли, Джим Р. Коулмэн

О фильме: Терри Барнетт пишет музыку на берегу океана, где живет в маленьком городке с сыном и милым смешным пёсиком по кличке Зевс. Зевс — жуткий проказник, и его за это не любит соседка Мэри Бет, называя блохастым и перенося свою неприязнь на владельцев. Она живет с двумя дочерьми и занимается изучением поведения дельфинов. Зевс проникает на борт ее судна и падает в воду, где много-много «диких акул»! Спасает его от зубастых хищников умный и добрый дельфин Роксанна. Зевс и Роксанна, конечно же, становятся лучшими друзьями, а их дружба, или «межвидовое общение», как это называет симпатичная ученая, сближает обе семьи.

Продолжительность: 01:38:09
Перевод: Профессиональный многоголосый, профессиональный двухголосый, авторский
Субтитры: Английские
Навигация по главам: Есть

Файл
Качество: WEB-DL 1080p
Видео: MPEG-4 AVC, 12,1 Мбит/сек, 1920x1080, 23,976 кадра/сек
Аудио #1: AC3, 2 ch, 192 Кбит/сек | Русский, профессиональный (многоголосый закадровый) Paramount channel
Аудио #2: AC3, 2 ch, 192 Кбит/сек | Русский, профессиональный (двухголосый закадровый) СТС
Аудио #3: AC3, 2 ch, 192 Кбит/сек | Русский, авторский (одноголосый закадровый) Андрей Гаврилов
Аудио #4: EAC3, 2 ch, 224 Кбит/сек | Английский, оригинал



Скриншоты
Инфо-файл
Общее
Уникальный идентификатор : 235734759701121535574910205384987412468 (0xB158DCFEE0CE7EB38B1EF147586A87F4)
Полное имя : Зевс.и.Роксана.1997.WEB-DL.1080p.mkv
Формат : Matroska
Версия формата : Version 2
Размер файла : 9,05 Гбайт
Продолжительность : 1 ч. 38 м.
Режим общего битрейта : Переменный
Общий поток : 13,2 Мбит/сек
Дата кодирования : UTC 2018-09-07 05:01:17
Программа кодирования : mkvmerge v5.8.0 ('No Sleep / Pillow') built on Sep 2 2012 15:37:04
Библиотека кодирования : libebml v1.2.3 + libmatroska v1.3.0

Видео
Идентификатор : 1
Формат : AVC
Формат/Информация : Advanced Video Codec
Профиль формата : High@L4
Настройки формата : CABAC / 4 Ref Frames
Параметр CABAC формата : Да
Параметр RefFrames формата : 4 кадра
Идентификатор кодека : V_MPEG4/ISO/AVC
Продолжительность : 1 ч. 38 м.
Вид битрейта : Переменный
Битрейт : 12,1 Мбит/сек
Максимальный битрейт : 15,0 Мбит/сек
Ширина : 1920 пикселей
Высота : 1080 пикселей
Соотношение сторон : 16:9
Режим частоты кадров : Постоянный
Частота кадров : 23,976 (24000/1001) кадра/сек
Цветовое пространство : YUV
Субдискретизация насыщенности : 4:2:0
Битовая глубина : 8 бит
Тип развёртки : Прогрессивная
Бит/(Пиксели*Кадры) : 0.244
Размер потока : 8,32 Гбайт (92%)
Библиотека кодирования : x264 core 148 r2623 d5b2374
Настройки программы : cabac=1 / ref=4 / deblock=1:-1:-1 / analyse=0x3:0x133 / me=umh / subme=9 / psy=1 / psy_rd=1.00:0.15 / mixed_ref=1 / me_range=24 / chroma_me=1 / trellis=2 / 8x8dct=1 / cqm=0 / deadzone=21,11 / fast_pskip=1 / chroma_qp_offset=-3 / threads=34 / lookahead_threads=5 / sliced_threads=0 / nr=150 / decimate=1 / interlaced=0 / bluray_compat=0 / constrained_intra=0 / bframes=8 / b_pyramid=2 / b_adapt=2 / b_bias=0 / direct=3 / weightb=1 / open_gop=0 / weightp=2 / keyint=120 / keyint_min=61 / scenecut=0 / intra_refresh=0 / rc_lookahead=120 / rc=crf / mbtree=1 / crf=18.0 / qcomp=0.60 / qpmin=0 / qpmax=69 / qpstep=4 / vbv_maxrate=15000 / vbv_bufsize=31250 / crf_max=0.0 / nal_hrd=vbr / filler=0 / ip_ratio=1.40 / aq=3:1.00
Язык : English
По умолчанию : Да
Принудительно : Нет
Цветовой диапазон : Limited
Основные цвета : BT.709
Характеристики трансфера : BT.709
Коэффициенты матрицы : BT.709

Аудио #1
Идентификатор : 2
Формат : AC-3
Формат/Информация : Audio Coding 3
Идентификатор кодека : A_AC3
Продолжительность : 1 ч. 38 м.
Вид битрейта : Постоянный
Битрейт : 192 Кбит/сек
Каналы : 2 канала
Расположение каналов : Front: L R
Частота : 48,0 КГц
Частота кадров : 31,250 кадров/сек (1536 SPF)
Битовая глубина : 16 бит
Метод сжатия : С потерями
Размер потока : 135 Мбайт (1%)
Заголовок : MVO | Paramount channel
Язык : Russian
По умолчанию : Да
Принудительно : Нет

Аудио #2
Идентификатор : 3
Формат : AC-3
Формат/Информация : Audio Coding 3
Идентификатор кодека : A_AC3
Продолжительность : 1 ч. 38 м.
Вид битрейта : Постоянный
Битрейт : 192 Кбит/сек
Каналы : 2 канала
Расположение каналов : Front: L R
Частота : 48,0 КГц
Частота кадров : 31,250 кадров/сек (1536 SPF)
Битовая глубина : 16 бит
Метод сжатия : С потерями
Размер потока : 135 Мбайт (1%)
Заголовок : MVO | СТС
Язык : Russian
По умолчанию : Нет
Принудительно : Нет

Аудио #3
Идентификатор : 4
Формат : AC-3
Формат/Информация : Audio Coding 3
Идентификатор кодека : A_AC3
Продолжительность : 1 ч. 38 м.
Вид битрейта : Постоянный
Битрейт : 192 Кбит/сек
Каналы : 2 канала
Расположение каналов : Front: L R
Частота : 48,0 КГц
Частота кадров : 31,250 кадров/сек (1536 SPF)
Битовая глубина : 16 бит
Метод сжатия : С потерями
Размер потока : 135 Мбайт (1%)
Заголовок : AVO | А. Гаврилов
Язык : Russian
По умолчанию : Нет
Принудительно : Нет

Аудио #4
Идентификатор : 5
Формат : E-AC-3
Формат/Информация : Enhanced Audio Coding 3
Идентификатор кодека : A_EAC3
Продолжительность : 1 ч. 38 м.
Вид битрейта : Постоянный
Битрейт : 224 Кбит/сек
Каналы : 2 канала
Расположение каналов : Front: L R
Частота : 48,0 КГц
Частота кадров : 187,500 кадров/сек (256 SPF)
Метод сжатия : С потерями
Размер потока : 157 Мбайт (2%)
Заголовок : Original
Язык : English
По умолчанию : Нет
Принудительно : Нет

Текст #1
Идентификатор : 6
Формат : UTF-8
Идентификатор кодека : S_TEXT/UTF8
Идентификатор кодека/Информация : UTF-8 Plain Text
Язык : English
По умолчанию : Нет
Принудительно : Нет

Текст #2
Идентификатор : 7
Формат : UTF-8
Идентификатор кодека : S_TEXT/UTF8
Идентификатор кодека/Информация : UTF-8 Plain Text
Заголовок : SDH
Язык : English
По умолчанию : Нет
Принудительно : Нет

Меню
00:00:00.000 : en:01. Openining Credits
00:03:39.212 : en:02. Like Cat And Dog
00:10:26.952 : en:03. Zeus And Roxanne Meet
00:17:16.320 : en:04. An Unusual Drowning Crearure
00:24:00.265 : en:05. Caught In The Act
00:30:01.918 : en:06. Competition For The Grant
00:45:16.623 : en:07. Zeus Is Watching
00:49:26.581 : en:08. Inter-Species Communication
00:53:01.296 : en:09. Pairing Off Is An Art
00:57:01.494 : en:10. Terry And Jordan Are Leaving
01:02:53.387 : en:11. Zeus And Roxanne miss each Other
01:13:59.761 : en:12. A Dog As Bait
01:18:58.518 : en:13. Submarine In Trouble
01:23:20.947 : en:14. Roxanne Shows The Wey
01:33:28.220 : en:15. End Credits
Дополнительная информация
• Исходник видео WEB-DL Amazon.
Сборка:
 

Вложения

  • 46,2 KB Просмотры: 1
    Личеров 0
    Сидеров 0
    Файлов 1
    Объем 9 GB

Привет!

Мы группа людей которые решили помочь другим в решении их проблем, а так же пользователям с поиском самых свежих и качественных инфопродуктов. За 4 с небольшим месяца мы создали этот форум на который заходят ежедневно тысячи человек и посещаемость постоянно растёт. Мы создали панель лицензирования для защиты PHP скриптов от воровства и SEO панель для мониторинга наших сайтов и выбора верной стратегии их развития. Мы надеемся что то что мы создали пригодится Вам и возможно Вы поможете нам развиваться и совершенствоваться вместе с Вами.

Статистика форума

Темы
406.521
Сообщения
464.561
Пользователи
82.939
Новый пользователь
purp

Приложения форума для iOS и Android


У ркн там нет власти ;)
Приватные разговоры
Помощь Пользователи
    Вы не присоединились ни к одной комнате.