За последнюю неделю опубликовано 38 новых материалов.
Инструкция новичку Путеводитель по форуму Прокси для Telegram Показать подсказки , это бомба!

Скачать Зеро / Zero (2016) WEBRip-AVC | L1 бесплатно через торрент

  • Поучаствуй (в качестве покупателя) в любых пяти совместных покупках (кроме завершённых и "Моментальных") и получи группу "Новичок" навсегда -> ссылка на раздел
  • Получай до 480 рублей за каждого приглашенного пользователя!
    представляем Вам очередное расширение партнерской программы, подробности описаны тут -> ссылка
  • 90% материалов доступно к скачиванию после простой регистрации!
    Если же ты хочешь скачивать материалы без требования оставлять отзывы то получи группу "Новичок", 10 способов повышения описаны тут -> ссылка
  • К сожалению количество битых ссылок растет и мы уже не можем их оперативно восстанавливать поэтому просим помощи у каждого нашего пользователя.
    С сегодняшнего дня, за каждую восстановленную ссылку мы заплатим Вам.
    Подробнее тут -> ссылка
  • Перенесем твои заслуги с другого ресурса!
    Мы понимаем как сложно прокачивать аккаунты на форумах, вроде раскачал аккаунт, а тут появляется ресурс в 100 раз круче но тоже с системой прокачки и снова качать аккаунт...
    Предлагаем вам перенести Ваши заслуги на другом подобном ресурсе к нам.
    Подробности описаны тут -> ссылка
  • Вы можете получать по 2.5% с каждой покупки и продажи на маркете! Подробности в теме Партнёрская программа
Если Вы не хотите скачивать, Вы всегда можетепосмотретьонлайн, просто нажмите кнопку ниже :

Открыть плеер

Torrent_Bot

Торрент-Бот
Бот форума
4 Окт 2016
90
166
20
Информация о фильме
Название: Зеро
Оригинальное название: Zero
Год выхода: 2016
Жанр: ужасы
Режиссер: Гарри Баст
В ролях: Хлоя Аддискотт, Сэм Хардинг, Дженна Харриес, Дэн Дженкинс, Робин Осборн, Грант Рассел, Росс Шаддик, Франк Томас

О фильме:
Как вы сохраните свою человечность, когда человечество погибло? Спустя много лет после конца света, зомби озверели от голода. Небольшая группа выживших людей пытается спасти себя в этом жутком мире

e6788f6762c732001c6eb41bec1bfd94.gif

Страна: США
Продолжительность: 00:22:00
Перевод: Любительский (одноголосый) Хихикающий доктор

Файл
Формат: MKV
Качество: WEBRip-AVC
Видео: 1280x720 (2.40:1), 24,000 fps, [email protected] ~1309 kbps avg, 0.069 bit/pixel
Звук1: 44.100 kHz, MPEG Layer 3, 2 ch, ~192.00 kbps avg

Небольшая реклама в титрах

330e15b7e867776a35bfb81ca484532a.jpeg5a163a129940883c4ce600e6ac0e62d0.jpeg518e5034722e5b58b1b46ba6043e8f29.jpeg6bc53f75671dfade5cedbadf54a03385.jpeged17b82943929be52e8b03e71365b09c.jpegbd17b3d0d1c716ea664bb4185127db44.jpeg

MI
Complete name : C:Zero - A Zombie Short Film.mkv
Format : Matroska
Format version : Version 4 / Version 2
File size : 249 MiB
Duration : 22mn 43s
Overall bit rate : 1 531 Kbps
Encoded date : UTC 2018-03-07 14:58:41
Writing application : mkvmerge v8.3.0 ('Over the Horizon') 64bit
Writing library : libebml v1.3.1 + libmatroska v1.4.2
DURATION : 00:22:43.722000000
NUMBER_OF_FRAMES : 52205
NUMBER_OF_BYTES : 32729339
_STATISTICS_WRITING_APP : mkvmerge v8.3.0 ('Over the Horizon') 64bit
_STATISTICS_WRITING_DATE_UTC : 2018-03-07 14:58:41
_STATISTICS_TAGS : BPS DURATION NUMBER_OF_FRAMES NUMBER_OF_BYTES

Video
ID : 1
Format : AVC
Format/Info : Advanced Video Codec
Format profile : [email protected]
Format settings, CABAC : Yes
Format settings, ReFrames : 3 frames
Codec ID : V_MPEG4/ISO/AVC
Duration : 22mn 43s
Bit rate : 1 309 Kbps
Width : 1 280 pixels
Height : 720 pixels
Display aspect ratio : 16:9
Frame rate mode : Constant
Frame rate : 24.000 fps
Color space : YUV
Chroma subsampling : 4:2:0
Bit depth : 8 bits
Scan type : Progressive
Bits/(Pixel*Frame) : 0.059
Stream size : 213 MiB (85%)
Default : Yes
Forced : No
Color primaries : BT.709
Transfer characteristics : BT.709
Matrix coefficients : BT.709

Audio
ID : 2
Format : MPEG Audio
Format version : Version 1
Format profile : Layer 3
Codec ID : A_MPEG/L3
Codec ID/Hint : MP3
Duration : 22mn 43s
Bit rate mode : Constant
Bit rate : 192 Kbps
Channel(s) : 2 channels
Sampling rate : 44.1 KHz
Compression mode : Lossy
Stream size : 31.2 MiB (13%)
Default : Yes
Forced : No
 

Вложения

Привет!

Мы группа людей которые решили помочь другим в решении их проблем, а так же пользователям с поиском самых свежих и качественных инфопродуктов. За 4 с небольшим месяца мы создали этот форум на который заходят ежедневно тысячи человек и посещаемость постоянно растёт. Мы создали панель лицензирования для защиты PHP скриптов от воровства и SEO панель для мониторинга наших сайтов и выбора верной стратегии их развития. Мы надеемся что то что мы создали пригодится Вам и возможно Вы поможете нам развиваться и совершенствоваться вместе с Вами.

Статистика форума

Темы
410.864
Сообщения
469.405
Пользователи
87.828
Новый пользователь
LolPirod

Приложения форума для iOS и Android


У ркн там нет власти ;)
Приватные разговоры
Помощь Пользователи
    Вы не присоединились ни к одной комнате.