За последнюю неделю опубликовано 36 новых материалов.
Инструкция новичку Путеводитель по форуму Прокси для Telegram Показать подсказки , это бомба!

Скачать Землетрясение (2016) WEB-DLRip-AVC от ExKinoRay | iTunes бесплатно через торрент

  • Поучаствуй (в качестве покупателя) в любых пяти совместных покупках (кроме завершённых и "Моментальных") и получи группу "Новичок" навсегда -> ссылка на раздел
  • Получай до 480 рублей за каждого приглашенного пользователя!
    представляем Вам очередное расширение партнерской программы, подробности описаны тут -> ссылка
  • 90% материалов доступно к скачиванию после простой регистрации!
    Если же ты хочешь скачивать материалы без требования оставлять отзывы то получи группу "Новичок", 10 способов повышения описаны тут -> ссылка
  • К сожалению количество битых ссылок растет и мы уже не можем их оперативно восстанавливать поэтому просим помощи у каждого нашего пользователя.
    С сегодняшнего дня, за каждую восстановленную ссылку мы заплатим Вам.
    Подробнее тут -> ссылка
  • Перенесем твои заслуги с другого ресурса!
    Мы понимаем как сложно прокачивать аккаунты на форумах, вроде раскачал аккаунт, а тут появляется ресурс в 100 раз круче но тоже с системой прокачки и снова качать аккаунт...
    Предлагаем вам перенести Ваши заслуги на другом подобном ресурсе к нам.
    Подробности описаны тут -> ссылка
  • Вы можете получать по 2.5% с каждой покупки и продажи на маркете! Подробности в теме Партнёрская программа
Если Вы не хотите скачивать, Вы всегда можетепосмотретьонлайн, просто нажмите кнопку ниже :

Открыть плеер

Torrent_Bot

Торрент-Бот
Бот форума
4 Окт 2016
91
163
20
Информация о фильме
Название: Землетрясение
Год выпуска: 2016
Жанр: Драма
Режиссер: Сарик Андреасян
В ролях: Константин Лавроненко, Мария Миронова мл., Виктор Степанян, Татев Овакимян, Михаил Погосян, Грант Тохатян, Даниил Изотов, Микаэль Джанибекян, Сос Джанибекян, Арсен Григорян

О фильме:
7 декабря 1988 года в Армении произошло землетрясение, охватившее почти половину территории республики. Были разрушены города Спитак, Ленинакан, Кировакан, Степанаван и ещё более 300 населённых пунктов. 25 тысяч человек погибли, 19 тысяч стали инвалидами, больше полумиллиона остались без крыши над головой.На фоне природной катастрофы разворачивается история двух героев — 45-летнего Константина Бережного и 20-летнего Роберта Мелконяна. Судьба сталкивает их не впервые — много лет назад в автокатастрофе по вине Бережного погибли родители Роберта. Константин провел несколько лет в тюрьме, а маленького Роберта приютили родственники. По странному стечению обстоятельств Бережной возвращается к своей семье в день страшного землетрясения: его ждут жена, дочь, сын... и Роберт, который так и не простил ему гибели своих родителей. По иронии судьбы, герои оказываются в одном спасательном отряде, но узнают друг друга не сразу.



Страна: Россия, Армения
Студия: Марс Медиа Энтертейнмент
Продолжительность: 01:40:03
Язык: Русский | iTunes

Файл
Качество: WEB-DLRip (AVC)
Видео: MPEG-4 AVC, 1940 Кбит/с, 1024x430
Аудио: AC3, 2 ch, 384 Кбит/с

MI
General
Unique ID : 178786281775618476783246108868626744132 (0x8680FC4152624CCDACBE781A78EE0344)
Complete name : D:Earthquake.2016.O.WEB-DLRip.AVC.ExKinoRay.mkv
Format : Matroska
Format version : Version 2
File size : 1.63 GiB
Duration : 1 h 40 min
Overall bit rate : 2 325 kb/s
Movie name : Earthquake 2016 from ExKinoray
Encoded date : UTC 2016-12-17 02:01:27
Writing application : mkvmerge v7.6.0 ('Garden of Dreams') 32bit built on Feb 11 2015 00:18:47
Writing library : libebml v1.3.1 + libmatroska v1.4.2

Video
ID : 1
Format : AVC
Format/Info : Advanced Video Codec
Format profile : [email protected]
Format settings, CABAC : Yes
Format settings, ReFrames : 11 frames
Codec ID : V_MPEG4/ISO/AVC
Duration : 1 h 40 min
Bit rate : 1 940 kb/s
Width : 1 024 pixels
Height : 430 pixels
Display aspect ratio : 2.40:1
Frame rate mode : Constant
Frame rate : 25.000 FPS
Color space : YUV
Chroma subsampling : 4:2:0
Bit depth : 8 bits
Scan type : Progressive
Bits/(Pixel*Frame) : 0.176
Stream size : 1.32 GiB (81%)
Title : Enigma
Writing library : x264 core 144 r2525 40bb568
Encoding settings : cabac=1 / ref=11 / deblock=1:-2:-2 / analyse=0x3:0x113 / me=umh / subme=10 / psy=1 / psy_rd=1.00:0.05 / mixed_ref=1 / me_range=32 / chroma_me=1 / trellis=2 / 8x8dct=1 / cqm=0 / deadzone=21,11 / fast_pskip=1 / chroma_qp_offset=-3 / threads=12 / lookahead_threads=2 / sliced_threads=0 / nr=0 / decimate=1 / interlaced=0 / bluray_compat=0 / constrained_intra=0 / bframes=9 / b_pyramid=2 / b_adapt=2 / b_bias=0 / direct=3 / weightb=1 / open_gop=0 / weightp=2 / keyint=250 / keyint_min=25 / scenecut=40 / intra_refresh=0 / rc_lookahead=40 / rc=2pass / mbtree=0 / bitrate=1940 / ratetol=1.0 / qcomp=0.60 / qpmin=0 / qpmax=51 / qpstep=4 / cplxblur=20.0 / qblur=0.5 / vbv_maxrate=50000 / vbv_bufsize=62500 / nal_hrd=none / filler=0 / ip_ratio=1.40 / pb_ratio=1.30 / aq=1:1.00
Default : Yes
Forced : No
Color range : Limited
Color primaries : BT.709
Transfer characteristics : BT.709
Matrix coefficients : BT.709

Audio
ID : 2
Format : AC-3
Format/Info : Audio Coding 3
Mode extension : CM (complete main)
Format settings, Endianness : Big
Codec ID : A_AC3
Duration : 1 h 40 min
Bit rate mode : Constant
Bit rate : 384 kb/s
Channel(s) : 2 channels
Channel positions : Front: L R
Sampling rate : 48.0 kHz
Frame rate : 31.250 FPS (1536 spf)
Compression mode : Lossy
Stream size : 275 MiB (17%)
Language : Russian
Default : Yes
Forced : No

Menu
00:00:00.000 : en:Глава 1
00:06:30.920 : en:Глава 2
00:12:48.680 : en:Глава 3
00:20:23.840 : en:Глава 4
00:29:36.280 : en:Глава 5
00:36:51.160 : en:Глава 6
00:45:16.000 : en:Глава 7
00:52:38.080 : en:Глава 8
01:01:06.240 : en:Глава 9
01:09:29.600 : en:Глава 10
01:17:48.280 : en:Глава 11
01:25:18.840 : en:Глава 12



Релиз от:

Автор релиза:
 

Вложения

  • 17,3 KB Просмотры: 1
    Личеров 0
    Сидеров 0
    Файлов 1
    Объем 1,6 GB

Привет!

Мы группа людей которые решили помочь другим в решении их проблем, а так же пользователям с поиском самых свежих и качественных инфопродуктов. За 4 с небольшим месяца мы создали этот форум на который заходят ежедневно тысячи человек и посещаемость постоянно растёт. Мы создали панель лицензирования для защиты PHP скриптов от воровства и SEO панель для мониторинга наших сайтов и выбора верной стратегии их развития. Мы надеемся что то что мы создали пригодится Вам и возможно Вы поможете нам развиваться и совершенствоваться вместе с Вами.

Статистика форума

Темы
410.478
Сообщения
469.029
Пользователи
85.715
Новый пользователь
Margorita2202

Приложения форума для iOS и Android


У ркн там нет власти ;)
Приватные разговоры
Помощь Пользователи
    Вы не присоединились ни к одной комнате.