За последнюю неделю опубликовано 62 новых материалов.
Инструкция новичку Путеводитель по форуму Прокси для Telegram Показать подсказки , это бомба!

Скачать Зелёная книга / Green Book (2018) BDRip 720p от k.e.n & MegaPeer | D, P, P2, A бесплатно через торрент

  • Поучаствуй (в качестве покупателя) в любых пяти совместных покупках (кроме завершённых и "Моментальных") и получи группу "Новичок" навсегда -> ссылка на раздел
  • Получай до 480 рублей за каждого приглашенного пользователя!
    представляем Вам очередное расширение партнерской программы, подробности описаны тут -> ссылка
  • 90% материалов доступно к скачиванию после простой регистрации!
    Если же ты хочешь скачивать материалы без требования оставлять отзывы то получи группу "Новичок", 10 способов повышения описаны тут -> ссылка
  • К сожалению количество битых ссылок растет и мы уже не можем их оперативно восстанавливать поэтому просим помощи у каждого нашего пользователя.
    С сегодняшнего дня, за каждую восстановленную ссылку мы заплатим Вам.
    Подробнее тут -> ссылка
  • Перенесем твои заслуги с другого ресурса!
    Мы понимаем как сложно прокачивать аккаунты на форумах, вроде раскачал аккаунт, а тут появляется ресурс в 100 раз круче но тоже с системой прокачки и снова качать аккаунт...
    Предлагаем вам перенести Ваши заслуги на другом подобном ресурсе к нам.
    Подробности описаны тут -> ссылка
  • Вы можете получать по 2.5% с каждой покупки и продажи на маркете! Подробности в теме Партнёрская программа
Если Вы не хотите скачивать, Вы всегда можетепосмотретьонлайн, просто нажмите кнопку ниже :

Открыть плеер

Torrent_Bot

Торрент-Бот
Бот форума
4 Окт 2016
92
160
20



Информация о фильме
Название: Зелёная книга
Оригинальное название: Green Book
Год выхода: 2018
Жанр: Драма, комедия, биография
Режиссер: Питер Фаррелли
В ролях: Вигго Мортенсен, Махершала Али, Линда Карделлини, Себастьян Манискалко, Димитар Маринов, Майк Хаттон, П.Дж. Бирн, Джозеф Кортезе, Мэгги Никсон, Фон Льюис

О фильме:
Утонченный светский лев, богатый и талантливый музыкант нанимает в качестве водителя и телохранителя человека, который менее всего подходит для этой работы. Тони «Болтун» - вышибала, не умеющий держать рот на замке и пользоваться столовыми приборами, зато он хорошо работает кулаками. Это турне навсегда изменит жизнь обоих.



Страна: США
Студия: Participant Media, DreamWorks, Amblin Partners
Продолжительность: 02:10:04
Перевод: Дублированный, профессиональный многоголосый, профессиональный двухголосый, авторский

Файл
Формат: MKV
Качество: BDRip 720p
Видео: AVC, 1280x640, 23.976 fps, 5 246 kbps
Аудио #1: AC3, 48 kHz, 6 ch, 448 kbps - Русский, DUB
Аудио #2: AC3, 48 kHz, 2 ch, 192 kbps - Русский, MVO, HDRezka Studio
Аудио #3: AC3, 48 kHz, 2 ch, 192 kbps - Русский, DVO, TV Play Baltics
Аудио #4: AC3, 48 kHz, 6 ch, 448 kbps - Русский, AVO Д.Пучков
Аудио #5: AC3, 48 kHz, 6 ch, 448 kbps - Русский, AVO Д.Есарев
Аудио #6: AC3, 48 kHz, 6 ch, 448 kbps - Английский, Original
Субтитры: Russian, English

Релиз от: &

x264
x264 [info]: frame I:1553 Avg QP:14.09 size:165953 PSNR Mean Y:48.24 U:50.46 V:50.99 Avg:48.92 Global:48.49
x264 [info]: frame P:36338 Avg QP:16.74 size: 59612 PSNR Mean Y:45.95 U:49.06 V:50.01 Avg:46.83 Global:46.17
x264 [info]: frame B:149237 Avg QP:18.31 size: 18014 PSNR Mean Y:44.78 U:47.95 V:49.32 Avg:45.70 Global:45.15
MI
General
Unique ID : 197236622487210426514748593823108491910 (0x94626448ED8CFE56BA00FC932276EA86)
Complete name : C:Зелёная книга.2018 (В.Мортенсен, Махершала Али).mkv
Format : Matroska
Format version : Version 2
File size : 6.74 GiB
Duration : 2 h 10 min
Overall bit rate : 7 419 kb/s
Encoded date : UTC 2020-05-16 12:43:48
Writing application : mkvmerge v5.3.0 ('I could have danced') built on Feb 9 2012 10:38:07
Writing library : libebml v1.2.3 + libmatroska v1.3.0
Cover : Yes
Attachments : cover 2.jpg

Video
ID : 1
Format : AVC
Format/Info : Advanced Video Codec
Format profile : [email protected]
Format settings, CABAC : Yes
Format settings, ReFrames : 10 frames
Codec ID : V_MPEG4/ISO/AVC
Duration : 2 h 10 min
Bit rate : 5 246 kb/s
Width : 1 280 pixels
Height : 640 pixels
Display aspect ratio : 2.000
Frame rate mode : Constant
Frame rate : 23.976 (24000/1001) FPS
Color space : YUV
Chroma subsampling : 4:2:0
Bit depth : 8 bits
Scan type : Progressive
Bits/(Pixel*Frame) : 0.267
Stream size : 4.63 GiB (69%)
Writing library : x264 core 146 r2538 121396c
Encoding settings : cabac=1 / ref=10 / deblock=1:-3:-3 / analyse=0x3:0x133 / me=umh / subme=11 / psy=1 / psy_rd=1.05:0.10 / mixed_ref=1 / me_range=32 / chroma_me=1 / trellis=2 / 8x8dct=1 / cqm=0 / deadzone=21,11 / fast_pskip=0 / chroma_qp_offset=-3 / threads=12 / lookahead_threads=3 / sliced_threads=0 / nr=0 / decimate=0 / interlaced=0 / bluray_compat=0 / constrained_intra=0 / bframes=10 / b_pyramid=2 / b_adapt=2 / b_bias=0 / direct=3 / weightb=1 / open_gop=0 / weightp=2 / keyint=240 / keyint_min=23 / scenecut=40 / intra_refresh=0 / rc=2pass / mbtree=0 / bitrate=5246 / ratetol=1.0 / qcomp=0.60 / qpmin=0 / qpmax=69 / qpstep=4 / cplxblur=20.0 / qblur=0.5 / ip_ratio=1.40 / pb_ratio=1.30 / aq=3:0.80
Language : English
Default : Yes
Forced : No

Audio #1
ID : 2
Format : AC-3
Format/Info : Audio Coding 3
Mode extension : CM (complete main)
Format settings, Endianness : Big
Codec ID : A_AC3
Duration : 2 h 10 min
Bit rate mode : Constant
Bit rate : 448 kb/s
Channel(s) : 6 channels
Channel positions : Front: L C R, Side: L R, LFE
Sampling rate : 48.0 kHz
Frame rate : 31.250 FPS (1536 spf)
Bit depth : 16 bits
Compression mode : Lossy
Stream size : 417 MiB (6%)
Title : Dub
Language : Russian
Default : Yes
Forced : Yes

Audio #2
ID : 3
Format : AC-3
Format/Info : Audio Coding 3
Mode extension : CM (complete main)
Format settings, Endianness : Big
Codec ID : A_AC3
Duration : 2 h 10 min
Bit rate mode : Constant
Bit rate : 192 kb/s
Channel(s) : 2 channels
Channel positions : Front: L R
Sampling rate : 48.0 kHz
Frame rate : 31.250 FPS (1536 spf)
Bit depth : 16 bits
Compression mode : Lossy
Stream size : 179 MiB (3%)
Title : MVO | HDRezka Studio
Language : Russian
Default : No
Forced : No

Audio #3
ID : 4
Format : AC-3
Format/Info : Audio Coding 3
Mode extension : CM (complete main)
Format settings, Endianness : Big
Codec ID : A_AC3
Duration : 2 h 10 min
Bit rate mode : Constant
Bit rate : 192 kb/s
Channel(s) : 2 channels
Channel positions : Front: L R
Sampling rate : 48.0 kHz
Frame rate : 31.250 FPS (1536 spf)
Bit depth : 16 bits
Compression mode : Lossy
Stream size : 179 MiB (3%)
Title : DVO | TV Play Baltics
Language : Russian
Default : No
Forced : No

Audio #4
ID : 5
Format : AC-3
Format/Info : Audio Coding 3
Mode extension : CM (complete main)
Format settings, Endianness : Big
Codec ID : A_AC3
Duration : 2 h 10 min
Bit rate mode : Constant
Bit rate : 448 kb/s
Channel(s) : 6 channels
Channel positions : Front: L C R, Side: L R, LFE
Sampling rate : 48.0 kHz
Frame rate : 31.250 FPS (1536 spf)
Bit depth : 16 bits
Compression mode : Lossy
Stream size : 417 MiB (6%)
Title : AVO | Д.Пучков
Language : Russian
Default : No
Forced : No

Audio #5
ID : 6
Format : AC-3
Format/Info : Audio Coding 3
Mode extension : CM (complete main)
Format settings, Endianness : Big
Codec ID : A_AC3
Duration : 2 h 10 min
Bit rate mode : Constant
Bit rate : 448 kb/s
Channel(s) : 6 channels
Channel positions : Front: L C R, Side: L R, LFE
Sampling rate : 48.0 kHz
Frame rate : 31.250 FPS (1536 spf)
Bit depth : 16 bits
Compression mode : Lossy
Stream size : 417 MiB (6%)
Title : AVO | Д.Есарев
Language : Russian
Default : No
Forced : No

Audio #6
ID : 7
Format : AC-3
Format/Info : Audio Coding 3
Mode extension : CM (complete main)
Format settings, Endianness : Big
Codec ID : A_AC3
Duration : 2 h 10 min
Bit rate mode : Constant
Bit rate : 448 kb/s
Channel(s) : 6 channels
Channel positions : Front: L C R, Side: L R, LFE
Sampling rate : 48.0 kHz
Frame rate : 31.250 FPS (1536 spf)
Bit depth : 16 bits
Compression mode : Lossy
Stream size : 417 MiB (6%)
Title : Original
Language : English
Default : No
Forced : No

Text #1
ID : 8
Format : UTF-8
Codec ID : S_TEXT/UTF8
Codec ID/Info : UTF-8 Plain Text
Title : Forced
Language : Russian
Default : Yes
Forced : Yes

Text #2
ID : 9
Format : UTF-8
Codec ID : S_TEXT/UTF8
Codec ID/Info : UTF-8 Plain Text
Title : Full
Language : Russian
Default : No
Forced : No

Text #3
ID : 10
Format : UTF-8
Codec ID : S_TEXT/UTF8
Codec ID/Info : UTF-8 Plain Text
Language : English
Default : No
Forced : No

Menu
00:00:00.000 : en:00:00:00.000
00:05:43.009 : en:00:05:43.009
00:11:50.043 : en:00:11:50.043
00:18:17.805 : en:00:18:17.805
00:23:46.675 : en:00:23:46.675
00:28:37.382 : en:00:28:37.382
00:34:38.785 : en:00:34:38.785
00:41:13.304 : en:00:41:13.304
00:46:44.593 : en:00:46:44.593
00:54:19.173 : en:00:54:19.173
01:02:42.342 : en:01:02:42.342
01:10:42.655 : en:01:10:42.655
01:16:16.155 : en:01:16:16.155
01:24:30.274 : en:01:24:30.274
01:30:37.724 : en:01:30:37.724
01:36:53.266 : en:01:36:53.266
01:44:56.081 : en:01:44:56.081
01:51:12.124 : en:01:51:12.124
01:54:38.872 : en:01:54:38.872
02:02:25.505 : en:02:02:25.505
Скриншоты
 

Вложения

  • 17,9 KB Просмотры: 1
    Личеров 0
    Сидеров 0
    Файлов 1
    Объем 6,7 GB

Привет!

Мы группа людей которые решили помочь другим в решении их проблем, а так же пользователям с поиском самых свежих и качественных инфопродуктов. За 4 с небольшим месяца мы создали этот форум на который заходят ежедневно тысячи человек и посещаемость постоянно растёт. Мы создали панель лицензирования для защиты PHP скриптов от воровства и SEO панель для мониторинга наших сайтов и выбора верной стратегии их развития. Мы надеемся что то что мы создали пригодится Вам и возможно Вы поможете нам развиваться и совершенствоваться вместе с Вами.

Статистика форума

Темы
406.657
Сообщения
465.114
Пользователи
84.666
Новый пользователь
inqueto

Приложения форума для iOS и Android


У ркн там нет власти ;)
Приватные разговоры
Помощь Пользователи
    Вы не присоединились ни к одной комнате.