За последнюю неделю опубликовано 65 новых материалов.
Инструкция новичку Путеводитель по форуму Прокси для Telegram Показать подсказки , это бомба!

Скачать Здравствуйте, я ваша тетя! (1975) HDTVRip от ImperiaFilm бесплатно через торрент

  • Поучаствуй (в качестве покупателя) в любых пяти совместных покупках (кроме завершённых и "Моментальных") и получи группу "Новичок" навсегда -> ссылка на раздел
  • Получай до 480 рублей за каждого приглашенного пользователя!
    представляем Вам очередное расширение партнерской программы, подробности описаны тут -> ссылка
  • 90% материалов доступно к скачиванию после простой регистрации!
    Если же ты хочешь скачивать материалы без требования оставлять отзывы то получи группу "Новичок", 10 способов повышения описаны тут -> ссылка
  • К сожалению количество битых ссылок растет и мы уже не можем их оперативно восстанавливать поэтому просим помощи у каждого нашего пользователя.
    С сегодняшнего дня, за каждую восстановленную ссылку мы заплатим Вам.
    Подробнее тут -> ссылка
  • Перенесем твои заслуги с другого ресурса!
    Мы понимаем как сложно прокачивать аккаунты на форумах, вроде раскачал аккаунт, а тут появляется ресурс в 100 раз круче но тоже с системой прокачки и снова качать аккаунт...
    Предлагаем вам перенести Ваши заслуги на другом подобном ресурсе к нам.
    Подробности описаны тут -> ссылка
  • Вы можете получать по 2.5% с каждой покупки и продажи на маркете! Подробности в теме Партнёрская программа
Если Вы не хотите скачивать, Вы всегда можетепосмотретьонлайн, просто нажмите кнопку ниже :

Открыть плеер

Torrent_Bot

Торрент-Бот
Бот форума
4 Окт 2016
92
163
20
Информация о фильме
Название: Здравствуйте, я ваша тетя!
Год выхода: 1975
Жанр: Комедия
Режиссер: Виктор Титов
В ролях: Александр Калягин, Армен Джигарханян, Михаил Любезнов, Олег Шкловский, Михаил Козаков, Тамара Носова, Татьяна Веденеева, Татьяна Васильева, Галина Орлова (II), Валентин Гафт, Виктор Гайнов, Анатолий Малашкин, Владимир Коровкин, Рогволд Суховерко, Антон Макаров, Юрий Прохоров, Николай Тагин, Александр Макаров

О фильме:
Действие фильма происходит в начале XX века. Безработный Бабс Баберлей (Александр Калягин) случайно попадает в богатый дом. Здесь его уже ждут два молодых джентльмена, правда, нужен им не Бабс, а тетушка-миллионерша донна Роза д’Альвадорец, вдова дона Педро из Бразилии, где «много-много диких обезьян», кем главный герой и становится, в надежде скрыться от полиции. Такая заваруха затеяна, дабы донна Роза, располагая своим авторитетом и состоянием, сумела убедить опекуна двух прелестных девушек, возлюбленных джентльменов, к коим и попал Бабс, разрешить замужество до 25-ти лет, сохраняя право на получение приданного. Тем временем, богатая «тётушка» привлекает к себе внимание хромого полковника Чеснея (Михаил Козаков) и вышеупомянутого опекуна судьи Кригса (Армен Джигарханян), страстно желающих поправить свое материальное положение. Кстати, Джигарханян, игравший Чеснея в театре, изначально пробовался на эту роль. Но режиссер Виктор Титов увидел его Кригсом. И все бы ничего… но тут приезжает настоящая тётя Роза. По мотивам пьесы Б. Томаса «Тетка Чарлея».



Страна: СССР
Студия: Творческое объединение «Экран»
Продолжительность: 01:37:10
Перевод: Не требуется

Файл
Кодек: XviD
Качество: HDTVRip
Видео: 512x384 (1.33:1), 25 fps, XviD build 73 ~935 kbps avg, 0.19 bit/pixel
Звук: 48 kHz, MPEG Layer 3, 2 ch, ~128.00 kbps avg
Субтитры: Отсутствуют

Семпл

MI
General
Complete name : D:Изготовление рипаZdravstvyiyte ia vasha tiotia!.(1975).HDTVRip by shkiper.avi
Format : AVI
Format/Info : Audio Video Interleave
File size : 746 MiB
Duration : 1 h 37 min
Overall bit rate : 1 073 kb/s
Writing application : VirtualDubMod 1.5.10.3 | www.virtualdub-fr.org || (build 2550/release)
Writing library : VirtualDubMod build 2550/release

Video
ID : 0
Format : MPEG-4 Visual
Format profile : Advanced [email protected]
Format settings, BVOP : 1
Format settings, QPel : No
Format settings, GMC : No warppoints
Format settings, Matrix : Custom
Codec ID : XVID
Codec ID/Hint : XviD
Duration : 1 h 37 min
Bit rate : 935 kb/s
Width : 512 pixels
Height : 384 pixels
Display aspect ratio : 4:3
Frame rate : 25.000 FPS
Color space : YUV
Chroma subsampling : 4:2:0
Bit depth : 8 bits
Scan type : Progressive
Compression mode : Lossy
Bits/(Pixel*Frame) : 0.190
Stream size : 650 MiB (87%)
Writing library : XviD 73

Audio
ID : 1
Format : MPEG Audio
Format version : Version 1
Format profile : Layer 3
Codec ID : 55
Codec ID/Hint : MP3
Duration : 1 h 37 min
Bit rate mode : Constant
Bit rate : 128 kb/s
Channel(s) : 2 channels
Sampling rate : 48.0 kHz
Compression mode : Lossy
Stream size : 89.0 MiB (12%)
Alignment : Aligned on interleaves
Interleave, duration : 40 ms (1.00 video frame)
Interleave, preload duratio : 504 ms
Writing library : LAME3.99r
Encoding settings : -m s -V 4 -q 2 -lowpass 17 -b 128
Скриншоты

Релиз от:
 

Вложения

  • 15,5 KB Просмотры: 1
    Личеров 0
    Сидеров 0
    Файлов 1
    Объем 745,7 MB

Привет!

Мы группа людей которые решили помочь другим в решении их проблем, а так же пользователям с поиском самых свежих и качественных инфопродуктов. За 4 с небольшим месяца мы создали этот форум на который заходят ежедневно тысячи человек и посещаемость постоянно растёт. Мы создали панель лицензирования для защиты PHP скриптов от воровства и SEO панель для мониторинга наших сайтов и выбора верной стратегии их развития. Мы надеемся что то что мы создали пригодится Вам и возможно Вы поможете нам развиваться и совершенствоваться вместе с Вами.

Статистика форума

Темы
406.674
Сообщения
465.119
Пользователи
84.731
Новый пользователь
LianSel

Приложения форума для iOS и Android


У ркн там нет власти ;)
Приватные разговоры
Помощь Пользователи
    Вы не присоединились ни к одной комнате.