За последнюю неделю опубликовано 99 новых материалов.
Инструкция новичку Путеводитель по форуму Прокси для Telegram Показать подсказки , это бомба!

Скачать Здесь слышен океан / Umi ga Kikoeru / I Can Hear the Sea / The Ocean Waves (1993) BDRip 1080p от NNNB | P, A бесплатно через торрент

  • Поучаствуй (в качестве покупателя) в любых пяти совместных покупках (кроме завершённых и "Моментальных") и получи группу "Новичок" навсегда -> ссылка на раздел
  • Получай до 480 рублей за каждого приглашенного пользователя!
    представляем Вам очередное расширение партнерской программы, подробности описаны тут -> ссылка
  • 90% материалов доступно к скачиванию после простой регистрации!
    Если же ты хочешь скачивать материалы без требования оставлять отзывы то получи группу "Новичок", 10 способов повышения описаны тут -> ссылка
  • К сожалению количество битых ссылок растет и мы уже не можем их оперативно восстанавливать поэтому просим помощи у каждого нашего пользователя.
    С сегодняшнего дня, за каждую восстановленную ссылку мы заплатим Вам.
    Подробнее тут -> ссылка
  • Перенесем твои заслуги с другого ресурса!
    Мы понимаем как сложно прокачивать аккаунты на форумах, вроде раскачал аккаунт, а тут появляется ресурс в 100 раз круче но тоже с системой прокачки и снова качать аккаунт...
    Предлагаем вам перенести Ваши заслуги на другом подобном ресурсе к нам.
    Подробности описаны тут -> ссылка
  • Вы можете получать по 2.5% с каждой покупки и продажи на маркете! Подробности в теме Партнёрская программа

Torrent_Bot

Торрент-Бот
Бот форума
4 Окт 2016
79
194
20
7484954ba04ff55a53cc209bf6d39914.png
Информацияофильме
Русское название: Здесь слышен океан / Я смогу услышать шум океана
Оригинальное название: Umi ga Kikoeru / I Can Hear the Sea / The Ocean Waves
Год выхода: 1993
Жанр: аниме, мультфильм, драма, мелодрама
Режиссер: Томоми Мотидзуки
Выпущено: Япония
Продолжительность: 01:12:08
Перевод: Профессиональный (многоголосый, закадровый), Авторский (одноголосый, закадровый)
Роли озвучивали: Нобуо Тобита, Тосихико Сэки, Ёко Сакамото, Юри Амано, Каэ Араки, Дзюнъити Канэмару, Аи Сато, Ая Хисакава, Томокадзу Сэки, Хикару Мидорикава


Сюжетфильма
Старшеклассники Таку и его друг Мацуо полны раздумий о своей будущей жизни, когда красавица Рикако переводится в их провинциальную школу из Токио. Рикако — смышлёная, очаровательная и утончённая девушка, вынужденная поменять привычную ей столицу на тихий приморский городок. Возникает неизбежный любовный треугольник.


Файл
Качество: BDRip 1080p (исходник Blu-Ray Disc 1080p)
Контейнер: MKV (расширение файла)
Видео: 1920x1038, 10852 Кбит/сек, 23,976 кадр/сек, AVC, x264, [email protected], 1.85:1, 0.227 Бит/[Пиксели*Кадры]
Аудио 1: AC-3, 192 Кбит/сек, 2 канала(ов), 48,0 КГц - Многоголосый закадровый, Омикрон / Русский
Аудио 2: AC-3, 192 Кбит/сек, 2 канала(ов), 48,0 КГц - Одноголосый закадровый, А.Толстобров / Русский
Аудио 3: AC-3, 192 Кбит/сек, 2 канала(ов), 48,0 КГц - Оригинал / Японский
Субтитры: Русские | Полные, Английские | Полные
Форсированные субтитры: Нет
Чаптеры (Главы): Нет


Дополнительная информация:
- Русская дорожка студии "Омикрон" по переводу BurniN∙SnikerS реализована в рамках проекта "HDClub-озвучивание".
- Спонсоры: 3gas, prfviper, hdrmv12, rgv, TerribleFloater, mmmsoft, feadraug, Strix78Fukuro, kot_feliks, burninsniker, w15, Serg_B, ksmirnov, ntktuf, TH95, gelom, tambov68, JohnniNUR, carafuto, Stanner, Darthlexx, Beonikol, ogenhd, 8bitman, FoxLive, Tuzik55555, Niflung, Segroil, AndyCher, zorro28, Prek177
- Автор выражает особую благодарность всем меценатам и тем, кто прямо или косвенно помог реализовать данный проект, в том числе: serin, hfpjdsq и Arvy

2e2f1790b03f56206a1b56d94cf6e4f4.gif2838ebe8d1ed9f04a9aebd2326bb6136.gif059242db25b3441473cc5bc0ae05322d.gif

Автор Рипа: Группа: a1ef797a50ee2ce1073457ca837ddca8.gif


Скриншоты
4ef46d40bd7ea54540be53d5270e4b03.png22feda0d1fc5f640963d38c7518de886.png424cd4b4deacc3694fd442d457b9b764.png
MediaInfo
Format : Matroska
Format version : Version 2
File size : 5.76 GiB
Duration : 1 h 12 min
Overall bit rate : 11.4 Mb/s
Movie name : The Ocean Waves.(1993).BDRip.1080p.[envy]
Encoded date : UTC 2017-07-25 08:10:41
Writing application : mkvmerge v5.8.0 ('No Sleep / Pillow') built on Sep 2 2012 15:37:04
Writing library : libebml v1.2.3 + libmatroska v1.3.0

Video
ID : 1
Format : AVC
Format/Info : Advanced Video Codec
Format profile : [email protected]4.1
Format settings, CABAC : Yes
Format settings, ReFrames : 4 frames
Codec ID : V_MPEG4/ISO/AVC
Duration : 1 h 12 min
Bit rate : 10.9 Mb/s
Width : 1 920 pixels
Height : 1 038 pixels
Display aspect ratio : 1.85:1
Frame rate mode : Constant
Frame rate : 23.976 (24000/1001) FPS
Color space : YUV
Chroma subsampling : 4:2:0
Bit depth : 8 bits
Scan type : Progressive
Bits/(Pixel*Frame) : 0.227
Stream size : 5.36 GiB (93%)
Title : The Ocean Waves.(1993).BDRip.1080p.[envy]
Writing library : x264 core 152 r2851 ba24899
Encoding settings : cabac=1 / ref=4 / deblock=1:0:0 / analyse=0x3:0x133 / me=umh / subme=11 / psy=1 / psy_rd=1.00:0.00 / mixed_ref=1 / me_range=32 / chroma_me=1 / trellis=2 / 8x8dct=1 / cqm=0 / deadzone=21,11 / fast_pskip=0 / chroma_qp_offset=-2 / threads=12 / lookahead_threads=1 / sliced_threads=0 / nr=0 / decimate=1 / interlaced=0 / bluray_compat=0 / constrained_intra=0 / bframes=5 / b_pyramid=2 / b_adapt=2 / b_bias=0 / direct=3 / weightb=1 / open_gop=0 / weightp=2 / keyint=240 / keyint_min=23 / scenecut=40 / intra_refresh=0 / rc=2pass / mbtree=0 / bitrate=10852 / ratetol=2.0 / qcomp=0.60 / qpmin=0 / qpmax=69 / qpstep=4 / cplxblur=20.0 / qblur=0.5 / ip_ratio=1.40 / pb_ratio=1.30 / aq=1:1.00
Language : Japanese
Default : Yes
Forced : No

Audio #1
ID : 2
Format : AC-3
Format/Info : Audio Coding 3
Format settings, Endianness : Big
Codec ID : A_AC3
Duration : 1 h 12 min
Bit rate mode : Constant
Bit rate : 192 kb/s
Channel(s) : 2 channels
Channel positions : Front: L R
Sampling rate : 48.0 kHz
Frame rate : 31.250 FPS (1536 spf)
Bit depth : 16 bits
Compression mode : Lossy
Stream size : 99.1 MiB (2%)
Title : MVO Омикрон
Language : Russian
Service kind : Complete Main
Default : Yes
Forced : No

Audio #2
ID : 3
Format : AC-3
Format/Info : Audio Coding 3
Format settings, Endianness : Big
Codec ID : A_AC3
Duration : 1 h 12 min
Bit rate mode : Constant
Bit rate : 192 kb/s
Channel(s) : 2 channels
Channel positions : Front: L R
Sampling rate : 48.0 kHz
Frame rate : 31.250 FPS (1536 spf)
Bit depth : 16 bits
Compression mode : Lossy
Stream size : 99.1 MiB (2%)
Title : AVO А.Толстобров
Language : Russian
Service kind : Complete Main
Default : No
Forced : No

Audio #3
ID : 4
Format : AC-3
Format/Info : Audio Coding 3
Format settings, Endianness : Big
Codec ID : A_AC3
Duration : 1 h 12 min
Bit rate mode : Constant
Bit rate : 192 kb/s
Channel(s) : 2 channels
Channel positions : Front: L R
Sampling rate : 48.0 kHz
Frame rate : 31.250 FPS (1536 spf)
Bit depth : 16 bits
Compression mode : Lossy
Stream size : 99.1 MiB (2%)
Title : Jpn
Language : Japanese
Service kind : Complete Main
Default : No
Forced : No

Text #1
ID : 5
Format : UTF-8
Codec ID : S_TEXT/UTF8
Codec ID/Info : UTF-8 Plain Text
Title : Rus full
Language : Russian
Default : No
Forced : No

Text #2
ID : 6
Format : UTF-8
Codec ID : S_TEXT/UTF8
Codec ID/Info : UTF-8 Plain Text
Title : Eng full
Language : English
Default : No
Forced : No

Menu
00:00:00.000 : :Chapter 01
00:06:21.839 : :Chapter 02
00:12:07.268 : :Chapter 03
00:20:01.200 : :Chapter 04
00:27:54.672 : :Chapter 05
00:33:15.159 : :Chapter 06
00:38:28.306 : :Chapter 07
00:43:13.173 : :Chapter 08
00:47:49.116 : :Chapter 09
00:52:42.617 : :Chapter 10
00:58:50.235 : :Chapter 11
01:04:59.520 : :Chapter 12
01:09:20.156 : :Chapter 13
01:12:07.114 : :Chapter 14
 

Вложения

Привет!

Мы группа людей которые решили помочь другим в решении их проблем, а так же пользователям с поиском самых свежих и качественных инфопродуктов. За 4 с небольшим месяца мы создали этот форум на который заходят ежедневно тысячи человек и посещаемость постоянно растёт. Мы создали панель лицензирования для защиты PHP скриптов от воровства и SEO панель для мониторинга наших сайтов и выбора верной стратегии их развития. Мы надеемся что то что мы создали пригодится Вам и возможно Вы поможете нам развиваться и совершенствоваться вместе с Вами.

Статистика форума

Темы
414.370
Сообщения
475.396
Пользователи
96.561
Новый пользователь
starushka

Приложения форума для iOS и Android


У ркн там нет власти ;)
Приватные разговоры
Помощь Пользователи
    Вы не присоединились ни к одной комнате.