За последнюю неделю опубликовано 116 новых материалов.
Инструкция новичку Путеводитель по форуму Прокси для Telegram Показать подсказки , это бомба!

Скачать Завтрак на траве / Le déjeuner sur l'herbe (1959) BDRemux 1080р | L1 бесплатно через торрент

  • Поучаствуй (в качестве покупателя) в любых пяти совместных покупках (кроме завершённых и "Моментальных") и получи группу "Новичок" навсегда -> ссылка на раздел
  • Получай до 480 рублей за каждого приглашенного пользователя!
    представляем Вам очередное расширение партнерской программы, подробности описаны тут -> ссылка
  • 90% материалов доступно к скачиванию после простой регистрации!
    Если же ты хочешь скачивать материалы без требования оставлять отзывы то получи группу "Новичок", 10 способов повышения описаны тут -> ссылка
  • К сожалению количество битых ссылок растет и мы уже не можем их оперативно восстанавливать поэтому просим помощи у каждого нашего пользователя.
    С сегодняшнего дня, за каждую восстановленную ссылку мы заплатим Вам.
    Подробнее тут -> ссылка
  • Перенесем твои заслуги с другого ресурса!
    Мы понимаем как сложно прокачивать аккаунты на форумах, вроде раскачал аккаунт, а тут появляется ресурс в 100 раз круче но тоже с системой прокачки и снова качать аккаунт...
    Предлагаем вам перенести Ваши заслуги на другом подобном ресурсе к нам.
    Подробности описаны тут -> ссылка
  • Вы можете получать по 2.5% с каждой покупки и продажи на маркете! Подробности в теме Партнёрская программа
Если Вы не хотите скачивать, Вы всегда можетепосмотретьонлайн, просто нажмите кнопку ниже :

Открыть плеер

Torrent_Bot

Торрент-Бот
Бот форума
4 Окт 2016
123
108
20



Информация о фильме
Название: Завтрак на траве
Оригинальное название: Le déjeuner sur l'herbe
Год выхода: 1959
Жанр: комедия, мелодрама
Режиссер: Жан Ренуар
В ролях: Пол Мёрисс, Катрин Рувель, Шарль Блаветт, Андре Бруно, Régine Blaess, Маргарит Кассан, Robert Chandeau, Jacques Danoville, Элен Дюк, Полетт Дюбо, Гислена Дюмон

Описание: Пейзажи Прованса как основной фон действия. Профессор-генетик, увлеченный планами искусственного оплодотворения и выведения идеальной человеческой породы. Молоденькая и очень хорошенькая крестьянская девушка, заставляющая профессора забыть преимущества искусственного перед величием естественного.



Страна: Франция
Продолжительность: 01:33:17
Перевод: любительский (одноголосый закадровый) Francais
Субтитры: русские, английские
Оригинальная аудиодорожка: французский

Файл
Качество: BDRemux 1080р
Видео: MPEG-4 AVC / 25071 / 1080p / 24 fps / 16:9 / High Profile 4.1
Аудио 1: Русский / AC3 / 2.0 / 48 kHz / 192 kbps
Аудио 2: Французский / DTS-HD MA / 2.0 / 48 kHz / 679 kbps / 16-bit (DTS Core: 2.0 / 48 kHz / 384 kbps / 16-bit)

Скриншоты
MediaInfo
General
Unique ID : 199436794687582708025820186302748695649 (0x960A21264417147FD087F490F23E1C61)
Complete name : Le.dejeuner.sur.l'herbe.1959.BDRemux.mkv
Format : Matroska
Format version : Version 4
File size : 16.9 GiB
Duration : 1 h 33 min
Overall bit rate mode : Variable
Overall bit rate : 25.9 Mb/s
Encoded date : UTC 2020-01-09 14:06:26
Writing application : mkvmerge v42.0.0 ('Overtime') 64-bit
Writing library : libebml v1.3.10 + libmatroska v1.5.2

Video
ID : 1
Format : AVC
Format/Info : Advanced Video Codec
Format profile : High@L4.1
Format settings : CABAC / 4 Ref Frames
Format settings, CABAC : Yes
Format settings, Reference : 4 frames
Codec ID : V_MPEG4/ISO/AVC
Duration : 1 h 33 min
Bit rate mode : Variable
Bit rate : 25.1 Mb/s
Maximum bit rate : 30.0 Mb/s
Width : 1 920 pixels
Height : 1 080 pixels
Display aspect ratio : 16:9
Frame rate mode : Constant
Frame rate : 24.000 FPS
Color space : YUV
Chroma subsampling : 4:2:0
Bit depth : 8 bits
Scan type : Progressive
Bits/(Pixel*Frame) : 0.504
Stream size : 16.3 GiB (97%)
Language : French
Default : Yes
Forced : No
Color range : Limited
Color primaries : BT.709
Transfer characteristics : BT.709
Matrix coefficients : BT.709

Audio #1
ID : 2
Format : AC-3
Format/Info : Audio Coding 3
Commercial name : Dolby Digital
Codec ID : A_AC3
Duration : 1 h 33 min
Bit rate mode : Constant
Bit rate : 192 kb/s
Channel(s) : 2 channels
Channel layout : L R
Sampling rate : 48.0 kHz
Frame rate : 31.250 FPS (1536 SPF)
Compression mode : Lossy
Stream size : 128 MiB (1%)
Title : VO, Francais
Language : Russian
Service kind : Complete Main
Default : Yes
Forced : No

Audio #2
ID : 3
Format : DTS XLL
Format/Info : Digital Theater Systems
Commercial name : DTS-HD Master Audio
Codec ID : A_DTS
Duration : 1 h 33 min
Bit rate mode : Variable
Bit rate : 679 kb/s
Channel(s) : 2 channels
Channel layout : L R
Sampling rate : 48.0 kHz
Frame rate : 93.750 FPS (512 SPF)
Bit depth : 16 bits
Compression mode : Lossless
Stream size : 453 MiB (3%)
Language : French
Default : No
Forced : No

Text #1
ID : 4
Format : UTF-8
Codec ID : S_TEXT/UTF8
Codec ID/Info : UTF-8 Plain Text
Duration : 1 h 32 min
Bit rate : 103 b/s
Count of elements : 1051
Stream size : 70.0 KiB (0%)
Language : Russian
Default : No
Forced : No

Text #2
ID : 5
Format : UTF-8
Codec ID : S_TEXT/UTF8
Codec ID/Info : UTF-8 Plain Text
Duration : 1 h 32 min
Bit rate : 61 b/s
Count of elements : 966
Stream size : 41.7 KiB (0%)
Language : English
Default : No
Forced : No

Menu
00:00:00.000 : en:Chapter 1
00:08:31.000 : en:Chapter 2
00:17:12.500 : en:Chapter 3
00:27:32.208 : en:Chapter 4
00:35:29.125 : en:Chapter 5
00:44:34.125 : en:Chapter 6
00:53:48.000 : en:Chapter 7
01:03:35.917 : en:Chapter 8
01:12:18.792 : en:Chapter 9
01:22:41.500 : en:Chapter 10
01:33:05.500 : en:Chapter 11
 

Вложения

  • 85,4 KB Просмотры: 0
    Личеров 0
    Сидеров 0
    Файлов 1
    Объем 16,9 GB

Привет!

Мы группа людей которые решили помочь другим в решении их проблем, а так же пользователям с поиском самых свежих и качественных инфопродуктов. За 4 с небольшим месяца мы создали этот форум на который заходят ежедневно тысячи человек и посещаемость постоянно растёт. Мы создали панель лицензирования для защиты PHP скриптов от воровства и SEO панель для мониторинга наших сайтов и выбора верной стратегии их развития. Мы надеемся что то что мы создали пригодится Вам и возможно Вы поможете нам развиваться и совершенствоваться вместе с Вами.

Статистика форума

Темы
384.674
Сообщения
427.785
Пользователи
58.891
Новый пользователь
София Колс

Приложения форума для iOS и Android


У ркн там нет власти ;)
Приватные разговоры
Помощь Пользователи
    Вы не присоединились ни к одной комнате.