За последнюю неделю опубликовано 103 новых материалов.
Инструкция новичку Путеводитель по форуму Прокси для Telegram Показать подсказки , это бомба!

Скачать Заводные Детки-таблетки / Глиттер Форс Доки Доки / Dokidoki! Precure [S01-02] (2013-2014) WEB-DLRip от Deadmauvlad | D | Netflix бесплатно через торрент

  • Поучаствуй (в качестве покупателя) в любых пяти совместных покупках (кроме завершённых и "Моментальных") и получи группу "Новичок" навсегда -> ссылка на раздел
  • Получай до 480 рублей за каждого приглашенного пользователя!
    представляем Вам очередное расширение партнерской программы, подробности описаны тут -> ссылка
  • 90% материалов доступно к скачиванию после простой регистрации!
    Если же ты хочешь скачивать материалы без требования оставлять отзывы то получи группу "Новичок", 10 способов повышения описаны тут -> ссылка
  • К сожалению количество битых ссылок растет и мы уже не можем их оперативно восстанавливать поэтому просим помощи у каждого нашего пользователя.
    С сегодняшнего дня, за каждую восстановленную ссылку мы заплатим Вам.
    Подробнее тут -> ссылка
  • Перенесем твои заслуги с другого ресурса!
    Мы понимаем как сложно прокачивать аккаунты на форумах, вроде раскачал аккаунт, а тут появляется ресурс в 100 раз круче но тоже с системой прокачки и снова качать аккаунт...
    Предлагаем вам перенести Ваши заслуги на другом подобном ресурсе к нам.
    Подробности описаны тут -> ссылка
  • Вы можете получать по 2.5% с каждой покупки и продажи на маркете! Подробности в теме Партнёрская программа

Torrent_Bot

Торрент-Бот
Бот форума
4 Окт 2016
124
96
20


Информация о фильме
Название: Заводные Детки-таблетки / Глиттер Форс Доки Доки (Стук сердца! Милое лекарство)
Оригинальное название: Dokidoki! Precure
Год выхода: 2013-2014
Жанр: махо-сёдзё, сёдзё, фэнтези
Режиссер: Го Кога
В ролях: Минако Котобуки, Канако Миямото, Хитоми Набатамэ, Риэ Кугимия, Маи Футигами, Юка Имаи, Нобуаки Канэмицу, Харуми Уэда, Акихико Исидзуми, Кадзухиро Ямадзи
Роли дублировали: Ольга Кузьмина, Ксения Большакова, Варвара Чабан, Екатерина Брандт, Белоусова Дарья, Евгений Хазов


О фильме:
Аида Мана - девушка, которая всегда стремится сделать что-то ради других. Однажды, когда она посещала "Башню Клевера" по программе её школы, внезапно появился враг, который назвал себя "Эгоист" и попытался манипулировать её собственным сердцем! Для борьбы с этим врагом, она обратилась к волшебной фее Шаруру с просьбой превратить её в Pretty Cure! Для защиты мира во всем мире. Вскоре другие легендарные Pretty Cure вступили в бой вместе с ней! Также появляется таинственный ребёнок, каждый день делая опыт "Сердцебиение". В сердцах этих четырёх Pretty Cure, всегда живёт любовь, ведь они борются за судьбу мира!



Официальный сайт



Страна: Япония
Студия: Toei Animation
Продолжительность: 30 х ~ 00:25:00
Перевод: Профессиональный дублированный BTI Studios (По заказу стриминг-сервиса Netflix)

Возрастное ограничение:Рейтинг G — Нет возрастных ограничений

Файл
Кодек: XviD
Качество: WEB-DLRip [Исходник: WEB-DL 1080p]
Видео: 704x400 (16:9), 29.970 fps, 1500 Кбит/сек (0.178 bit/pixel)
Аудио №1: AC-3, 48,0 КГц, 2 ch, 192 Кбит/сек, CBR | | BTI Studios
Аудио №2: AC-3, 48,0 КГц, 6 ch, 384 Кбит/сек, CBR | | Английский (Оригинал)
Субтитры: Русские (полный перевод) Netflix


Список Серий
Season 01
1. A New Adventure
2. A Diamond in the Rough
3. And Clara Makes Three
4. The Glitter Spotlight
5. The Spade From Splendorius
6. The Way Home
7. Mis-Adventures in Babysitting
8. Superstar Classmate
9. Helpful to a Fault
10. The Princess and the Rose
11. Lights... Camera... Distraction!
12. Maya's New Best Frenemy
13. The Return of Regina
14. Royal Crystal Chaos
15. Back to Splendorius
Season 02
1. New Friends, Old Enemies
2. First Rule of Glitter Force!
3. Mackenzie Loses Her Mojo
4. Those Who Defend You
5. Searching for a Dream
6. Ace’s Secret Weakness
7. The Crystal Mirror
8. Darkness Is Coming
9. The Spear of Light
10. The Meaning of Family
11. The Golden Crown of Wisdom
12. The Story of Splendorius
13. The Beginning of the End
14. The King Within
15. The Last Battle


MediaInfo
Общее
Полное имя : Заводные.Детки-таблетки.S01.WEB-DLRip.RUS.ENG.Deadmauvlad.Ep.01.avi
Формат : AVI
Формат/Информация : Audio Video Interleave
Размер файла : 369 Мбайт
Продолжительность : 24 м. 40 с.
Общий поток : 2094 Кбит/сек
Название фильма : Заводные.Детки-таблетки.S01.WEB-DLRip.RUS.ENG.Deadmauvlad.Ep.01
Режиссёр : Encoder by Deadmauvlad
Жанр : приключения, махо-сёдзё
Программа кодирования : VirtualDubMod 1.5.10.3 | www.virtualdub-fr.org || (build 2550/release)
Формат оригинала/Имя : Аниме
Авторское право : Encoder by Deadmauvlad
Примечание : Encoder by Deadmauvlad

Видео
Идентификатор : 0
Формат : MPEG-4 Visual
Профиль формата : Advanced Simple@L5
Настройки формата : BVOP1 / Custom Matrix
Параметр BVOP формата : 1
Параметр QPel формата : Нет
Параметр GMC формата : Без точки перехода
Параметр матрицы формата : Выборочная
Идентификатор кодека : XVID
Идентификатор кодека/Подсказка : XviD
Продолжительность : 24 м. 40 с.
Битрейт : 1500 Кбит/сек
Ширина : 704 пикселя
Высота : 400 пикселей
Соотношение сторон : 16:9
Частота кадров : 29,970 (30000/1001) кадров/сек
Цветовое пространство : YUV
Субдискретизация насыщенности : 4:2:0
Битовая глубина : 8 бит
Тип развёртки : Прогрессивная
Метод сжатия : С потерями
Бит/(Пиксели*Кадры) : 0.178
Размер потока : 265 Мбайт (72%)
Библиотека кодирования : XviD 73

Аудио #1
Идентификатор : 1
Формат : AC-3
Формат/Информация : Audio Coding 3
Коммерческое название : Dolby Digital
Идентификатор кодека : 2000
Продолжительность : 24 м. 40 с.
Вид битрейта : Постоянный
Битрейт : 192 Кбит/сек
Каналы : 2 канала
Channel layout : L R
Частота : 48,0 КГц
Частота кадров : 31,250 кадров/сек (1536 SPF)
Битовая глубина : 16 бит
Метод сжатия : С потерями
Размер потока : 33,9 Мбайт (9%)
Выравнивание : Разделение по промежуткам
Продолжительность промежутка : 33 мс. (1,00 видеокадр)
Время предзагрузки промежутка : 500 мс.


Аудио #2
Идентификатор : 2
Формат : AC-3
Формат/Информация : Audio Coding 3
Коммерческое название : Dolby Digital
Идентификатор кодека : 2000
Продолжительность : 24 м. 40 с.
Вид битрейта : Постоянный
Битрейт : 384 Кбит/сек
Каналы : 6 каналов
Channel layout : L R C LFE Ls Rs
Частота : 48,0 КГц
Частота кадров : 31,250 кадров/сек (1536 SPF)
Битовая глубина : 16 бит
Метод сжатия : С потерями
Размер потока : 67,7 Мбайт (18%)
Выравнивание : Разделение по промежуткам
Продолжительность промежутка : 33 мс. (1,00 видеокадр)
Время предзагрузки промежутка : 500 мс.


Скриншоты

Резервные скриншоты


Релиз / Автор рипа: >Deadmauvlad <

 

Вложения

  • 62,7 KB Просмотры: 0
    Личеров 0
    Сидеров 0
    Файлов 60
    Объем 10,8 GB
Ваш e-mail не будет опубликован. Он потребуется для подтверждения Вашего поста.
Оформление текста Нажмите «Ввод», чтобы отправить ответ.

Привет!

Мы группа людей которые решили помочь другим в решении их проблем, а так же пользователям с поиском самых свежих и качественных инфопродуктов. За 4 с небольшим месяца мы создали этот форум на который заходят ежедневно тысячи человек и посещаемость постоянно растёт. Мы создали панель лицензирования для защиты PHP скриптов от воровства и SEO панель для мониторинга наших сайтов и выбора верной стратегии их развития. Мы надеемся что то что мы создали пригодится Вам и возможно Вы поможете нам развиваться и совершенствоваться вместе с Вами.

Статистика форума

Темы
378.796
Сообщения
418.336
Пользователи
50.363
Новый пользователь
Antmay

Приложения форума для iOS и Android


У ркн там нет власти ;)
Приватные разговоры
Помощь Пользователи
    Вы не присоединились ни к одной комнате.