За последнюю неделю опубликовано 48 новых материалов.
Инструкция новичку Путеводитель по форуму Прокси для Telegram Показать подсказки , это бомба!

Скачать Зависнуть в Палм-Спрингс / Палм-Спрингс / Palm Springs (2020) WEB-DL 1080p | Кубик в Кубе бесплатно через торрент

  • Поучаствуй (в качестве покупателя) в любых пяти совместных покупках (кроме завершённых и "Моментальных") и получи группу "Новичок" навсегда -> ссылка на раздел
  • Получай до 480 рублей за каждого приглашенного пользователя!
    представляем Вам очередное расширение партнерской программы, подробности описаны тут -> ссылка
  • 90% материалов доступно к скачиванию после простой регистрации!
    Если же ты хочешь скачивать материалы без требования оставлять отзывы то получи группу "Новичок", 10 способов повышения описаны тут -> ссылка
  • К сожалению количество битых ссылок растет и мы уже не можем их оперативно восстанавливать поэтому просим помощи у каждого нашего пользователя.
    С сегодняшнего дня, за каждую восстановленную ссылку мы заплатим Вам.
    Подробнее тут -> ссылка
  • Перенесем твои заслуги с другого ресурса!
    Мы понимаем как сложно прокачивать аккаунты на форумах, вроде раскачал аккаунт, а тут появляется ресурс в 100 раз круче но тоже с системой прокачки и снова качать аккаунт...
    Предлагаем вам перенести Ваши заслуги на другом подобном ресурсе к нам.
    Подробности описаны тут -> ссылка
  • Вы можете получать по 2.5% с каждой покупки и продажи на маркете! Подробности в теме Партнёрская программа
Если Вы не хотите скачивать, Вы всегда можетепосмотретьонлайн, просто нажмите кнопку ниже :

Открыть плеер

Torrent_Bot

Торрент-Бот
Бот форума
4 Окт 2016
93
160
20



Информация о фильме
Название: Зависнуть в Палм-Спрингс
Оригинальное название: Palm Springs
Год выпуска: 2020
Жанр: комедия, мелодрама, фантастика
Режиссер: Макс Барбаков
В ролях: Энди Сэмберг (Nyles), Кристин Милиоти (Sarah), Дж.К. Симмонс (Roy), Питер Галлахер (Howard), Мередит Хагнер (Misty), Камила Мендес (Tala), Тайлер Хэклин (Abe), Крис Пэнг (Trevor), Жаклин Обрадорс (Pia), Джун Скуиб (Nana Schlieffen), Тонгай Арнольд Чириса (Jerry), Дейл Дикки (Darla)

О фильме: 9 ноября неподалёку от Палм-Спрингс идёт подготовка к свадьбе. Найлз, парень одной из подружек невесты, не торопится облачаться в смокинг - в шортах и гавайской рубашке он запрыгивает в бассейн и целый день расслабленно выпивает, а вечером произносит трогательную речь для молодожёнов. Последнее особенно впечатляет старшую сестру невесты Сару, и вот уже девушка оказывается с Найлзом наедине под звёздным небом. Но тут события принимают неожиданный поворот, и Сара вслед за своим новым приятелем заходит в загадочную пещеру, а на следующий день обнаруживает, что на календаре снова 9 ноября.



Страна: США
Студия: Limelight, Sun Entertainment Culture, The Lonely Island
Продолжительность: 01:29:59
Перевод: Профессиональный (двухголосый, закадровый) Кубик в Кубе

Файл
Качество: WEB-DL 1080p
Формат: Matroska
Видео: 1920x1080 at 24.000 fps, MPEG-4 AVC, ~4422 kbps avg
Аудио#1: Russian: 48 kHz, AC3, 2/0 (L,R) ch, ~192 kbps avg |Двухголосый закадровый, Кубик в Кубе|
Аудио#2: English: 48 kHz, AC3, 3/2 (L,C,R,l,r) + LFE ch, ~256 kbps avg
Субтитры: Russian (Forced, 3xFull), English (Full)

***За перевод спасибо: kolesik1
***Внимание! Присутствует ненормативная лексика!

MediaInfo
General
Unique ID : 201081962758842847560777012569596401343 (0x9746FA32A620B9B2851B91636CEE96BF)
Complete name : Palm.Springs.2020.WEB-DL.1080p.mkv
Format : Matroska
Format version : Version 2
File size : 3.06 GiB
Duration : 1 h 29 min
Overall bit rate : 4 872 kb/s
Movie name : Зависнуть в Палм-Спрингс / Палм-Спрингс / Palm Springs (2020)
Encoded date : UTC 2020-08-15 09:28:48
Writing application : mkvmerge v5.8.0 ('No Sleep / Pillow') built on Sep 2 2012 15:37:04
Writing library : libebml v1.2.3 + libmatroska v1.3.0

Video
ID : 1
Format : AVC
Format/Info : Advanced Video Codec
Format profile : [email protected]
Format settings : CABAC / 4 Ref Frames
Format settings, CABAC : Yes
Format settings, Reference fra : 4 frames
Codec ID : V_MPEG4/ISO/AVC
Duration : 1 h 29 min
Bit rate : 4 327 kb/s
Width : 1 920 pixels
Height : 1 080 pixels
Display aspect ratio : 16:9
Frame rate mode : Constant
Frame rate : 24.000 FPS
Color space : YUV
Chroma subsampling : 4:2:0
Bit depth : 8 bits
Scan type : Progressive
Bits/(Pixel*Frame) : 0.087
Stream size : 2.72 GiB (89%)
Language : English
Default : Yes
Forced : No

Audio #1
ID : 2
Format : AC-3
Format/Info : Audio Coding 3
Commercial name : Dolby Digital
Codec ID : A_AC3
Duration : 1 h 29 min
Bit rate mode : Constant
Bit rate : 192 kb/s
Channel(s) : 2 channels
Channel layout : L R
Sampling rate : 48.0 kHz
Frame rate : 31.250 FPS (1536 SPF)
Bit depth : 16 bits
Compression mode : Lossy
Stream size : 124 MiB (4%)
Title : Кубик в Кубе
Language : Russian
Service kind : Complete Main
Default : Yes
Forced : No

Audio #2
ID : 3
Format : AC-3
Format/Info : Audio Coding 3
Commercial name : Dolby Digital
Codec ID : A_AC3
Duration : 1 h 29 min
Bit rate mode : Constant
Bit rate : 256 kb/s
Channel(s) : 6 channels
Channel layout : L R C LFE Ls Rs
Sampling rate : 48.0 kHz
Frame rate : 31.250 FPS (1536 SPF)
Bit depth : 16 bits
Compression mode : Lossy
Stream size : 165 MiB (5%)
Language : English
Service kind : Complete Main
Default : No
Forced : No

Text #1
ID : 4
Format : UTF-8
Codec ID : S_TEXT/UTF8
Codec ID/Info : UTF-8 Plain Text
Title : Forced
Language : Russian
Default : Yes
Forced : No

Text #2
ID : 5
Format : UTF-8
Codec ID : S_TEXT/UTF8
Codec ID/Info : UTF-8 Plain Text
Title : Full
Language : Russian
Default : No
Forced : No

Text #3
ID : 6
Format : UTF-8
Codec ID : S_TEXT/UTF8
Codec ID/Info : UTF-8 Plain Text
Title : Full | lebowski
Language : Russian
Default : No
Forced : No

Text #4
ID : 7
Format : UTF-8
Codec ID : S_TEXT/UTF8
Codec ID/Info : UTF-8 Plain Text
Title : Full | Кубик в Кубе
Language : Russian
Default : No
Forced : No

Text #5
ID : 8
Format : UTF-8
Codec ID : S_TEXT/UTF8
Codec ID/Info : UTF-8 Plain Text
Title : Full
Language : English
Default : No
Forced : No
Скриншоты
 

Вложения

  • 16,2 KB Просмотры: 0
    Личеров 0
    Сидеров 0
    Файлов 1
    Объем 3,1 GB

Привет!

Мы группа людей которые решили помочь другим в решении их проблем, а так же пользователям с поиском самых свежих и качественных инфопродуктов. За 4 с небольшим месяца мы создали этот форум на который заходят ежедневно тысячи человек и посещаемость постоянно растёт. Мы создали панель лицензирования для защиты PHP скриптов от воровства и SEO панель для мониторинга наших сайтов и выбора верной стратегии их развития. Мы надеемся что то что мы создали пригодится Вам и возможно Вы поможете нам развиваться и совершенствоваться вместе с Вами.

Статистика форума

Темы
406.640
Сообщения
465.116
Пользователи
84.573
Новый пользователь
sobolsm

Приложения форума для iOS и Android


У ркн там нет власти ;)
Приватные разговоры
Помощь Пользователи
    Вы не присоединились ни к одной комнате.