За последнюю неделю опубликовано 23 новых материалов.
Инструкция новичку Путеводитель по форуму Прокси для Telegram Показать подсказки , это бомба!

Скачать Затмение (2016) HDRip-AVC от ExKinoRay | Лицензия бесплатно через торрент

  • Поучаствуй (в качестве покупателя) в любых пяти совместных покупках (кроме завершённых и "Моментальных") и получи группу "Новичок" навсегда -> ссылка на раздел
  • Получай до 480 рублей за каждого приглашенного пользователя!
    представляем Вам очередное расширение партнерской программы, подробности описаны тут -> ссылка
  • 90% материалов доступно к скачиванию после простой регистрации!
    Если же ты хочешь скачивать материалы без требования оставлять отзывы то получи группу "Новичок", 10 способов повышения описаны тут -> ссылка
  • К сожалению количество битых ссылок растет и мы уже не можем их оперативно восстанавливать поэтому просим помощи у каждого нашего пользователя.
    С сегодняшнего дня, за каждую восстановленную ссылку мы заплатим Вам.
    Подробнее тут -> ссылка
  • Перенесем твои заслуги с другого ресурса!
    Мы понимаем как сложно прокачивать аккаунты на форумах, вроде раскачал аккаунт, а тут появляется ресурс в 100 раз круче но тоже с системой прокачки и снова качать аккаунт...
    Предлагаем вам перенести Ваши заслуги на другом подобном ресурсе к нам.
    Подробности описаны тут -> ссылка
  • Вы можете получать по 2.5% с каждой покупки и продажи на маркете! Подробности в теме Партнёрская программа
Если Вы не хотите скачивать, Вы всегда можетепосмотретьонлайн, просто нажмите кнопку ниже :

Открыть плеер

Torrent_Bot

Торрент-Бот
Бот форума
4 Окт 2016
81
189
20

Затмение
«Любовь сильнее любых заклятий!»



Год выпуска: 2016
Страна: Россия
Производство: KINODANZ
Жанр: Фэнтези, приключения

Режиссёр: Артем Аксененко
В ролях: Александр Петров (II), Диана Пожарская, Катя Кабак, Сергей Бурунов, Семен Лопатин, Кирилл Козаков, Денис Ясик, Юлия Сулес, Алексей Воронин, Светлана Головина, Вероника Вернадская, Андрей Перунов, Ирина Цывина, Андрей Стоянов

Перевод: Не требуется | Лицензия

Описание: Обаятельный авантюрист Алекс в силу стечения обстоятельств заменяет на съемках популярного телешоу про экстрасенсов выбывшего участника — Шамана. И повторяет в прямом эфире предсказание, которое подслушал за кулисами, — что одна из зрительниц обречена на вечное одиночество, и от нее отвернутся близкие и родственники. Алекс не подозревает, что происходящее с ним — не случайно: он оказался замешан в давнее противостояние двух могущественных магов. Экстрасенсы втянули парня в опасную мистическую игру без правил. В жизни Тани — девушки, которую Алекс «проклял» на шоу — начинают происходить мистические события. Алекс пытается переубедить её, что никакого «проклятья» нет, и по ходу дела влюбляется в неё. Но предсказание получает все больше подтверждений и начинает угрожать жизни девушки. Чтобы сохранить себя и свою любовь, герой должен найти способ выбраться из мистического переплёта…



Качество: HDRip-AVC
Продолжительность: 01:20:00

Формат: MKV
Видео кодек: MPEG-4 AVC
Аудио кодек: AC3
Видео: 720x406 (16:9), 25.000 fps, x264 ~2161 kbps avg, 0.296 bit/pixel
Аудио: 48 kHz, AC3 Dolby Digital, 3/2 (L,C,R,l,r) + LFE ch, ~448.00 kbps avg | RUS

Дата премьеры (мир):
Дата премьеры (РФ): 27 апреля 2017, «Наше Кино»


Релиз от: Rip by:



MediaInfo
Общее
Уникальный идентификатор : 221178496081102641709640095053613283573 (0xA6656DCA24B3EA0A8CDCFCA3E9AEB8F5)
Полное имя : D:Zatmenie.2016.BDRip(AVC).ExKinoRay.mkv
Формат : Matroska
Версия формата : Version 2
Размер файла : 1,46 Гбайт
Продолжительность : 1 ч. 20 м.
Общий поток : 2611 Кбит/сек
Название фильма : Zatmenie.2016.BDRip(AVC) #TorpedoUK# (ExKinoRay)
Дата кодирования : UTC 2016-12-17 09:20:50
Программа кодирования : mkvmerge v7.8.0 ('River Man') 32bit built on Apr 3 2015 12:11:22
Библиотека кодирования : libebml v1.3.1 + libmatroska v1.4.2

Видео
Идентификатор : 1
Формат : AVC
Формат/Информация : Advanced Video Codec
Профиль формата : [email protected]
Параметр CABAC формата : Да
Параметр ReFrames формата : 10 кадров
Идентификатор кодека : V_MPEG4/ISO/AVC
Продолжительность : 1 ч. 20 м.
Битрейт : 2161 Кбит/сек
Ширина : 720 пикселей
Высота : 406 пикселей
Соотношение сторон : 16:9
Режим частоты кадров : Постоянный
Частота кадров : 25,000 кадров/сек
Цветовое пространство : YUV
Субдискретизация насыщенности : 4:2:0
Битовая глубина : 8 бит
Тип развёртки : Прогрессивная
Бит/(Пиксели*Кадры) : 0.296
Размер потока : 1,18 Гбайт (81%)
Библиотека кодирования : x264 core 146 r2538 121396c
Настройки программы : cabac=1 / ref=10 / deblock=1:-3:-3 / analyse=0x3:0x133 / me=umh / subme=11 / psy=1 / psy_rd=1.00:0.03 / mixed_ref=1 / me_range=48 / chroma_me=1 / trellis=2 / 8x8dct=1 / cqm=0 / deadzone=21,11 / fast_pskip=0 / chroma_qp_offset=-3 / threads=6 / lookahead_threads=1 / sliced_threads=0 / nr=0 / decimate=0 / interlaced=0 / bluray_compat=0 / constrained_intra=0 / bframes=10 / b_pyramid=2 / b_adapt=2 / b_bias=0 / direct=3 / weightb=1 / open_gop=0 / weightp=2 / keyint=240 / keyint_min=24 / scenecut=40 / intra_refresh=0 / rc_lookahead=40 / rc=2pass / mbtree=0 / bitrate=2161 / ratetol=1.0 / qcomp=0.60 / qpmin=0 / qpmax=69 / qpstep=4 / cplxblur=20.0 / qblur=0.5 / vbv_maxrate=50000 / vbv_bufsize=62500 / nal_hrd=none / filler=0 / ip_ratio=1.40 / pb_ratio=1.30 / aq=1:1.00
Default : Да
Forced : Нет

Аудио
Идентификатор : 2
Формат : AC-3
Формат/Информация : Audio Coding 3
Расширение режима : CM (complete main)
Параметр Endianness формата : Big
Идентификатор кодека : A_AC3
Продолжительность : 1 ч. 20 м.
Вид битрейта : Постоянный
Битрейт : 448 Кбит/сек
Каналы : 6 каналов
Расположение каналов : Front: L C R, Side: L R, LFE
Частота : 48,0 КГц
Битовая глубина : 16 бит
Метод сжатия : С потерями
Размер потока : 256 Мбайт (17%)
Default : Да
Forced : Нет

Меню
00:00:00.000 : en:00:00:00.000
00:06:49.720 : en:00:06:49.720
00:13:57.600 : en:00:13:57.600
00:20:40.840 : en:00:20:40.840
00:28:13.520 : en:00:28:13.520
00:35:37.880 : en:00:35:37.880
00:42:11.680 : en:00:42:11.680
00:48:49.560 : en:00:48:49.560
00:55:03.640 : en:00:55:03.640
01:01:43.160 : en:01:01:43.160
01:10:00.560 : en:01:10:00.560
01:16:18.080 : en:01:16:18.080
Скриншоты


 

Вложения

  • 15,5 KB Просмотры: 1
    Личеров 0
    Сидеров 0
    Файлов 1
    Объем 1,5 GB

Привет!

Мы группа людей которые решили помочь другим в решении их проблем, а так же пользователям с поиском самых свежих и качественных инфопродуктов. За 4 с небольшим месяца мы создали этот форум на который заходят ежедневно тысячи человек и посещаемость постоянно растёт. Мы создали панель лицензирования для защиты PHP скриптов от воровства и SEO панель для мониторинга наших сайтов и выбора верной стратегии их развития. Мы надеемся что то что мы создали пригодится Вам и возможно Вы поможете нам развиваться и совершенствоваться вместе с Вами.

Статистика форума

Темы
413.024
Сообщения
472.376
Пользователи
93.522
Новый пользователь
bikkppoes

Приложения форума для iOS и Android


У ркн там нет власти ;)
Приватные разговоры
Помощь Пользователи
    Вы не присоединились ни к одной комнате.