За последнюю неделю опубликовано 36 новых материалов.
Инструкция новичку Путеводитель по форуму Прокси для Telegram Показать подсказки , это бомба!

Скачать Затяжной прыжок / Cutaway (2000) DVDRip-AVC | P бесплатно через торрент

  • Поучаствуй (в качестве покупателя) в любых пяти совместных покупках (кроме завершённых и "Моментальных") и получи группу "Новичок" навсегда -> ссылка на раздел
  • Получай до 480 рублей за каждого приглашенного пользователя!
    представляем Вам очередное расширение партнерской программы, подробности описаны тут -> ссылка
  • 90% материалов доступно к скачиванию после простой регистрации!
    Если же ты хочешь скачивать материалы без требования оставлять отзывы то получи группу "Новичок", 10 способов повышения описаны тут -> ссылка
  • К сожалению количество битых ссылок растет и мы уже не можем их оперативно восстанавливать поэтому просим помощи у каждого нашего пользователя.
    С сегодняшнего дня, за каждую восстановленную ссылку мы заплатим Вам.
    Подробнее тут -> ссылка
  • Перенесем твои заслуги с другого ресурса!
    Мы понимаем как сложно прокачивать аккаунты на форумах, вроде раскачал аккаунт, а тут появляется ресурс в 100 раз круче но тоже с системой прокачки и снова качать аккаунт...
    Предлагаем вам перенести Ваши заслуги на другом подобном ресурсе к нам.
    Подробности описаны тут -> ссылка
  • Вы можете получать по 2.5% с каждой покупки и продажи на маркете! Подробности в теме Партнёрская программа
Если Вы не хотите скачивать, Вы всегда можетепосмотретьонлайн, просто нажмите кнопку ниже :

Открыть плеер

Torrent_Bot

Торрент-Бот
Бот форума
4 Окт 2016
91
163
20



Информация о фильме
Название: Затяжной прыжок
Оригинальное название: Cutaway
Год выхода: 2000
Жанр: Боевик, приключения
Режиссер: Гай Манос
В ролях: Том Беренджер, Стивен Болдуин, Дэннис Родман, Максин Банс, Рон Сильвер, Маркос А. Феррарез, Адам Вайли, Томас Йен Николас, Филлип Глассер, Каспер Ван Дин

О фильме:
Долгие годы агент под прикрытием, Виктор Купер, менял свои имена и легенды, разоблачая различных наркодельцов. Но однажды операция по перехвату контрабанды наркотиков в аэропорту Майами заканчивается полным провалом, и его отстраняют от ведения дела. Фанатичный Купер решает провести свое расследование. Вскоре он узнает о загадочном обществе парашютистов, денно и нощно совершающих перелеты из Флориды, чтобы отрабатывать свои прыжки. Его подозрения в содействии парашютистов переправке наркотиков полностью подтверждаются, и он внедряется в их общество.



Страна: США
Студия: Cutting Edge Entertainment, Golden ParaShoot Entertainment, Liaison Entertainment
Продолжительность: 01:44:23
Перевод: Профессиональный (многоголосый, закадровый)
Субтитры: Нет

Файл
Формат: MKV
Качество: DVDRip-AVC
Видео: 722x406 at 23.976 fps, x264, ~1797 kbps
Аудио: AC3, 2 ch, ~192 Кбит/с

***Релиз от:-=DoMiNo=-

M/I
x264 info: frame I:1173 Avg QP:16.92 size: 35465
x264 info: frame P:33753 Avg QP:18.08 size: 18546
x264 info: frame B:115240 Avg QP:19.90 size: 6300
x264 info: consecutive B-frames: 2.5% 3.5% 10.7% 17.1% 12.4% 46.6% 3.2% 1.2% 1.1% 0.5% 0.4% 0.4% 0.3%

General
Unique ID : 139384058313572039189330411586146676646 (0x68DC64A6A24B72EF6FCAB88BA9262FA6)
Complete name : Затяжной прыжок.(2000).DVDRip-AVC.F.S.[-=DoMiNo=-].mkv
Format : Matroska
Format version : Version 4
File size : 1.45 GiB
Duration : 1 h 44 min
Overall bit rate : 1 990 kb/s
Movie name : Затяжной прыжок / Cutaway (2000)
Encoded date : UTC 2019-06-29 20:02:43
Writing application : mkvmerge v35.0.0 ('All The Love In The World') 64-bit
Writing library : libebml v1.3.9 + libmatroska v1.5.2
Attachments : poster / poster

Video
ID : 1
Format : AVC
Format/Info : Advanced Video Codec
Format profile : [email protected]
Format settings : CABAC / 12 Ref Frames
Format settings, CABAC : Yes
Format settings, Reference : 12 frames
Codec ID : V_MPEG4/ISO/AVC
Duration : 1 h 44 min
Bit rate : 1 797 kb/s
Width : 722 pixels
Height : 406 pixels
Display aspect ratio : 16:9
Frame rate mode : Constant
Frame rate : 23.976 (24000/1001) FPS
Color space : YUV
Chroma subsampling : 4:2:0
Bit depth : 8 bits
Scan type : Progressive
Bits/(Pixel*Frame) : 0.256
Stream size : 1.31 GiB (90%)
Title : RIP_BY_-=DoMiNo=-
Writing library : x264 core 157 r2969 d4099dd
Encoding settings : cabac=1 / ref=12 / deblock=1:-2:-2 / analyse=0x3:0x133 / me=umh / subme=11 / psy=1 / psy_rd=1.05:0.15 / mixed_ref=1 / me_range=48 / chroma_me=1 / trellis=2 / 8x8dct=1 / cqm=0 / deadzone=21,11 / fast_pskip=0 / chroma_qp_offset=-3 / threads=6 / lookahead_threads=1 / sliced_threads=0 / nr=0 / decimate=0 / interlaced=0 / bluray_compat=0 / constrained_intra=0 / bframes=12 / b_pyramid=2 / b_adapt=2 / b_bias=0 / direct=3 / weightb=1 / open_gop=0 / weightp=2 / keyint=240 / keyint_min=23 / scenecut=40 / intra_refresh=0 / rc_lookahead=100 / rc=2pass / mbtree=0 / bitrate=1797 / ratetol=1.0 / qcomp=0.80 / qpmin=0 / qpmax=69 / qpstep=4 / cplxblur=20.0 / qblur=0.5 / vbv_maxrate=50000 / vbv_bufsize=62500 / nal_hrd=none / filler=0 / ip_ratio=1.40 / pb_ratio=1.30 / aq=3:0.80
Language : English
Default : Yes
Forced : No
Color range : Limited

Audio
ID : 2
Format : AC-3
Format/Info : Audio Coding 3
Commercial name : Dolby Digital
Codec ID : A_AC3
Duration : 1 h 44 min
Bit rate mode : Constant
Bit rate : 192 kb/s
Channel(s) : 2 channels
Channel layout : L R
Sampling rate : 48.0 kHz
Frame rate : 31.250 FPS (1536 SPF)
Bit depth : 16 bits
Compression mode : Lossy
Stream size : 143 MiB (10%)
Title : MVO
Language : Russian
Service kind : Complete Main
Default : Yes
Forced : No

Menu
00:00:00.000 : :Глава 0
00:06:09.767 : :Глава 1
00:10:42.501 : :Глава 2
00:17:33.767 : :Глава 3
00:21:32.434 : :Глава 4
00:27:55.467 : :Глава 5
00:31:43.167 : :Глава 6
00:40:34.034 : :Глава 7
00:45:46.167 : :Глава 8
00:55:47.200 : :Глава 9
01:02:13.533 : :Глава 10
01:10:08.100 : :Глава 11
01:18:09.467 : :Глава 12
01:21:28.034 : :Глава 13
01:31:20.401 : :Глава 14
Скриншоты
 

Вложения

  • 15,5 KB Просмотры: 1
    Личеров 0
    Сидеров 0
    Файлов 1
    Объем 1,5 GB

Привет!

Мы группа людей которые решили помочь другим в решении их проблем, а так же пользователям с поиском самых свежих и качественных инфопродуктов. За 4 с небольшим месяца мы создали этот форум на который заходят ежедневно тысячи человек и посещаемость постоянно растёт. Мы создали панель лицензирования для защиты PHP скриптов от воровства и SEO панель для мониторинга наших сайтов и выбора верной стратегии их развития. Мы надеемся что то что мы создали пригодится Вам и возможно Вы поможете нам развиваться и совершенствоваться вместе с Вами.

Статистика форума

Темы
410.478
Сообщения
469.025
Пользователи
85.713
Новый пользователь
existiert

Приложения форума для iOS и Android


У ркн там нет власти ;)
Приватные разговоры
Помощь Пользователи
    Вы не присоединились ни к одной комнате.