За последнюю неделю опубликовано 102 новых материалов.
Инструкция новичку Путеводитель по форуму Прокси для Telegram Показать подсказки , это бомба!

Скачать Затяжной прыжок / Cutaway (2000) DVDRip-AVC | P, A бесплатно через торрент

  • Поучаствуй (в качестве покупателя) в любых пяти совместных покупках (кроме завершённых и "Моментальных") и получи группу "Новичок" навсегда -> ссылка на раздел
  • Получай до 480 рублей за каждого приглашенного пользователя!
    представляем Вам очередное расширение партнерской программы, подробности описаны тут -> ссылка
  • 90% материалов доступно к скачиванию после простой регистрации!
    Если же ты хочешь скачивать материалы без требования оставлять отзывы то получи группу "Новичок", 10 способов повышения описаны тут -> ссылка
  • К сожалению количество битых ссылок растет и мы уже не можем их оперативно восстанавливать поэтому просим помощи у каждого нашего пользователя.
    С сегодняшнего дня, за каждую восстановленную ссылку мы заплатим Вам.
    Подробнее тут -> ссылка
  • Перенесем твои заслуги с другого ресурса!
    Мы понимаем как сложно прокачивать аккаунты на форумах, вроде раскачал аккаунт, а тут появляется ресурс в 100 раз круче но тоже с системой прокачки и снова качать аккаунт...
    Предлагаем вам перенести Ваши заслуги на другом подобном ресурсе к нам.
    Подробности описаны тут -> ссылка
  • Вы можете получать по 2.5% с каждой покупки и продажи на маркете! Подробности в теме Партнёрская программа
Если Вы не хотите скачивать, Вы всегда можетепосмотретьонлайн, просто нажмите кнопку ниже :

Открыть плеер

Torrent_Bot

Торрент-Бот
Бот форума
4 Окт 2016
102
152
20



Информация о фильме
Название: Затяжной прыжок
Оригинальное название: Cutaway
Год выхода: 2000
Жанр: Боевик, приключения
Режиссер: Гай Манос
В ролях: Том Беренджер, Стивен Болдуин, Дэннис Родман, Максин Банс, Рон Сильвер, Маркос А. Феррарез, Адам Вайли, Томас Йен Николас, Филлип Глассер, Каспер Ван Дин

О фильме:
Долгие годы агент под прикрытием, Виктор Купер, менял свои имена и легенды, разоблачая различных наркодельцов. Но однажды операция по перехвату контрабанды наркотиков в аэропорту Майами заканчивается полным провалом, и его отстраняют от ведения дела. Фанатичный Купер решает провести свое расследование. Вскоре он узнает о загадочном обществе парашютистов, денно и нощно совершающих перелеты из Флориды, чтобы отрабатывать свои прыжки. Его подозрения в содействии парашютистов переправке наркотиков полностью подтверждаются, и он внедряется в их общество.



Страна: США
Студия: Cutting Edge Entertainment, Golden ParaShoot Entertainment, Liaison Entertainment
Продолжительность: 01:44:23
Перевод: Профессиональный (многоголосый, закадровый) + авторский (одноголосый, закадровый)
Субтитры: Нет

Файл
Формат: MKV
Качество: DVDRip-AVC
Видео: 720=>852x480 at 23.976 fps, x264, ~2795 kbps
Аудио #1: AC3, 2 ch, ~192 Кбит/с - MVO
Аудио #2: AC3, 2 ch, ~192 Кбит/с - AVO (Юрий Живов)
Аудио #3: AC3, 2 ch, ~192 Кбит/с - ENG

***Релиз от:-=DoMiNo=-

M/I
x264 info: frame I:1207 Avg QP:16.24 size: 44686
x264 info: frame P:31461 Avg QP:17.25 size: 25862
x264 info: frame B:117498 Avg QP:19.50 size: 11240
x264 info: consecutive B-frames: 2.0% 2.0% 13.2% 6.3% 5.5% 67.4% 1.6% 0.6% 0.5% 0.2% 0.2% 0.2% 0.3%

General
Unique ID : 104630217071336160121984973950792632329 (0x4EB70BFC09B0192748DB28A01C460809)
Complete name : Затяжной прыжок.(2000).DVDRip-AVC.F.S.[-=DoMiNo=-].mkv
Format : Matroska
Format version : Version 4
File size : 2.46 GiB
Duration : 1 h 44 min
Overall bit rate : 3 374 kb/s
Movie name : Затяжной прыжок / Cutaway (2000)
Encoded date : UTC 2019-06-28 17:52:33
Writing application : mkvmerge v35.0.0 ('All The Love In The World') 64-bit
Writing library : libebml v1.3.9 + libmatroska v1.5.2
Attachments : poster / poster

Video
ID : 1
Format : AVC
Format/Info : Advanced Video Codec
Format profile : High@L4.1
Format settings : CABAC / 14 Ref Frames
Format settings, CABAC : Yes
Format settings, Reference : 14 frames
Codec ID : V_MPEG4/ISO/AVC
Duration : 1 h 44 min
Bit rate : 2 795 kb/s
Width : 720 pixels
Height : 480 pixels
Display aspect ratio : 16:9
Frame rate mode : Constant
Frame rate : 23.976 (24000/1001) FPS
Color space : YUV
Chroma subsampling : 4:2:0
Bit depth : 8 bits
Scan type : Progressive
Bits/(Pixel*Frame) : 0.337
Stream size : 2.04 GiB (83%)
Title : RIP_BY_-=DoMiNo=-
Writing library : x264 core 157 r2969 d4099dd
Encoding settings : cabac=1 / ref=14 / deblock=1:-2:-2 / analyse=0x3:0x133 / me=umh / subme=11 / psy=1 / psy_rd=1.05:0.15 / mixed_ref=1 / me_range=48 / chroma_me=1 / trellis=2 / 8x8dct=1 / cqm=0 / deadzone=21,11 / fast_pskip=1 / chroma_qp_offset=-3 / threads=6 / lookahead_threads=1 / sliced_threads=0 / nr=0 / decimate=1 / interlaced=0 / bluray_compat=0 / constrained_intra=0 / bframes=12 / b_pyramid=2 / b_adapt=2 / b_bias=0 / direct=1 / weightb=1 / open_gop=0 / weightp=2 / keyint=240 / keyint_min=23 / scenecut=40 / intra_refresh=0 / rc_lookahead=60 / rc=crf / mbtree=0 / crf=17.0 / qcomp=0.60 / qpmin=0 / qpmax=69 / qpstep=4 / vbv_maxrate=50000 / vbv_bufsize=62500 / crf_max=0.0 / nal_hrd=none / filler=0 / ip_ratio=1.40 / pb_ratio=1.30 / aq=3:0.80
Language : English
Default : Yes
Forced : No
Color range : Limited

Audio #1
ID : 2
Format : AC-3
Format/Info : Audio Coding 3
Commercial name : Dolby Digital
Codec ID : A_AC3
Duration : 1 h 44 min
Bit rate mode : Constant
Bit rate : 192 kb/s
Channel(s) : 2 channels
Channel layout : L R
Sampling rate : 48.0 kHz
Frame rate : 31.250 FPS (1536 SPF)
Bit depth : 16 bits
Compression mode : Lossy
Stream size : 143 MiB (6%)
Title : MVO
Language : Russian
Service kind : Complete Main
Default : Yes
Forced : No

Audio #2
ID : 3
Format : AC-3
Format/Info : Audio Coding 3
Commercial name : Dolby Digital
Codec ID : A_AC3
Duration : 1 h 44 min
Bit rate mode : Constant
Bit rate : 192 kb/s
Channel(s) : 2 channels
Channel layout : L R
Sampling rate : 48.0 kHz
Frame rate : 31.250 FPS (1536 SPF)
Bit depth : 16 bits
Compression mode : Lossy
Stream size : 143 MiB (6%)
Title : AVO (Юрий Живов)
Language : Russian
Service kind : Complete Main
Default : No
Forced : No

Audio #3
ID : 4
Format : AC-3
Format/Info : Audio Coding 3
Commercial name : Dolby Digital
Codec ID : A_AC3
Duration : 1 h 44 min
Bit rate mode : Constant
Bit rate : 192 kb/s
Channel(s) : 2 channels
Channel layout : L R
Sampling rate : 48.0 kHz
Frame rate : 31.250 FPS (1536 SPF)
Bit depth : 16 bits
Compression mode : Lossy
Stream size : 143 MiB (6%)
Title : ENG
Language : English
Service kind : Complete Main
Default : No
Forced : No

Menu
00:00:00.000 : :Глава 0
00:06:09.767 : :Глава 1
00:10:42.501 : :Глава 2
00:17:33.767 : :Глава 3
00:21:32.434 : :Глава 4
00:27:55.467 : :Глава 5
00:31:43.167 : :Глава 6
00:40:34.034 : :Глава 7
00:45:46.167 : :Глава 8
00:55:47.200 : :Глава 9
01:02:13.533 : :Глава 10
01:10:08.100 : :Глава 11
01:18:09.467 : :Глава 12
01:21:28.034 : :Глава 13
01:31:20.401 : :Глава 14
Скриншоты
Скриншоты
 

Вложения

  • 13,3 KB Просмотры: 1
    Личеров 0
    Сидеров 0
    Файлов 1
    Объем 2,5 GB

Привет!

Мы группа людей которые решили помочь другим в решении их проблем, а так же пользователям с поиском самых свежих и качественных инфопродуктов. За 4 с небольшим месяца мы создали этот форум на который заходят ежедневно тысячи человек и посещаемость постоянно растёт. Мы создали панель лицензирования для защиты PHP скриптов от воровства и SEO панель для мониторинга наших сайтов и выбора верной стратегии их развития. Мы надеемся что то что мы создали пригодится Вам и возможно Вы поможете нам развиваться и совершенствоваться вместе с Вами.

Статистика форума

Темы
404.573
Сообщения
461.396
Пользователи
80.202
Новый пользователь
Алексей1975

Приложения форума для iOS и Android


У ркн там нет власти ;)
Приватные разговоры
Помощь Пользователи
    Вы не присоединились ни к одной комнате.