За последнюю неделю опубликовано 28 новых материалов.
Инструкция новичку Путеводитель по форуму Прокси для Telegram Показать подсказки , это бомба!

Скачать Запрещенный прием / Sucker Punch (2011) BDRip-AVC от MediaBit | D, P2, A, L1 | Расширенная версия бесплатно через торрент

  • Поучаствуй (в качестве покупателя) в любых пяти совместных покупках (кроме завершённых и "Моментальных") и получи группу "Новичок" навсегда -> ссылка на раздел
  • Получай до 480 рублей за каждого приглашенного пользователя!
    представляем Вам очередное расширение партнерской программы, подробности описаны тут -> ссылка
  • 90% материалов доступно к скачиванию после простой регистрации!
    Если же ты хочешь скачивать материалы без требования оставлять отзывы то получи группу "Новичок", 10 способов повышения описаны тут -> ссылка
  • К сожалению количество битых ссылок растет и мы уже не можем их оперативно восстанавливать поэтому просим помощи у каждого нашего пользователя.
    С сегодняшнего дня, за каждую восстановленную ссылку мы заплатим Вам.
    Подробнее тут -> ссылка
  • Перенесем твои заслуги с другого ресурса!
    Мы понимаем как сложно прокачивать аккаунты на форумах, вроде раскачал аккаунт, а тут появляется ресурс в 100 раз круче но тоже с системой прокачки и снова качать аккаунт...
    Предлагаем вам перенести Ваши заслуги на другом подобном ресурсе к нам.
    Подробности описаны тут -> ссылка
  • Вы можете получать по 2.5% с каждой покупки и продажи на маркете! Подробности в теме Партнёрская программа
Если Вы не хотите скачивать, Вы всегда можетепосмотретьонлайн, просто нажмите кнопку ниже :

Открыть плеер

Torrent_Bot

Торрент-Бот
Бот форума
4 Окт 2016
93
160
20



Информация о фильме
Название: Запрещенный прием
Оригинальное название: Sucker Punch
Год выхода: 2011
Жанр: Фэнтези, боевик, триллер
Режиссер: Зак Снайдер
В ролях: Эмили Браунинг, Эбби Корниш, Джена Мэлоун, Ванесса Энн Хадженс, Джейми Чунг, Карла Гуджино, Джон Хэмм, Оскар Айзек, Скотт Гленн, Вики Ламберт

О фильме:
Молодая девушка по имени Куколка в компании маленькой сестры остается наедине с отчимом-извращенцем, когда ее мама умирает после продолжительной болезни. Не желая потакать прихотям похотливого мужика, она тем самым вызывает его гнев и насильно отправляется в психиатрическую лечебницу. В мрачных больничных казематах подсознание Куколки включает защитный механизм, с помощью которого девушка путешествует по причудливым фэнтезийным мирам в поисках пяти важных предметов. С этими артефактами Куколка и четверо ее подруг смогут совершить долгожданный побег из клиники.



Страна: США, Канада
Студия: With A Twist Studio, Animal Logic, Tinsley Transfers Inc.
Продолжительность: 02:07:30
Перевод: Дубляж [двухголосый на непереведенные места], профессиональный двухголосый, авторский одноголосый, любительский одноголосый

Файл
Кодек: MPEG-4 AVC
Качество: BDRip-AVC
Видео: 2006 Кбит/с, 1024x428, 23.976 кадр/с
Звук:
Аудио #1: AC3, 48 Гц, 448 Кбит/сек, 6 ch (L C R, + L R, LFE) | Лицензия - DUB
Аудио #2: AC3, 48 Гц, 448 Кбит/сек, 6 ch (L C R, + L R, LFE) | Кубик в кубе - DVO
Аудио #3: AC3, 48 Гц, 448 Кбит/сек, 6 ch (L C R, + L R, LFE) | Матвеев - AVO
Аудио #4: AC3, 48 Гц, 448 Кбит/сек, 6 ch (L C R, + L R, LFE) | Гаврилов - AVO
Аудио #5: AC3, 48 Гц, 448 Кбит/сек, 6 ch (L C R, + L R, LFE) | acolith - VO
Аудио #6: AC3, 48 Гц, 448 Кбит/сек, 6 ch (L C R, + L R, LFE) | Рапсодов - VO
Аудио #7: AC3, 48 Гц, 448 Кбит/сек, 6 ch (L C R, + L R, LFE) | Украинский - DUB
Аудио #8: AC3, 48 Гц, 448 Кбит/сек, 6 ch (L C R, + L R, LFE) | Английский
Субтитры: русские (форс.), русские (Е.Воронин (Full + SDH)), английские (Full), английские (SDH)

Семпл
MI
General
Unique ID : 151466579043472924504238707091270106915 (0x71F366EA7ABB84B102FEFA855AE57F23)
Complete name : D:2020 рипыPavloZapreschennyi.priem.2011.x264.BDRip(AVC)-MediaBit.mkv
Format : Matroska
Format version : Version 4 / Version 2
File size : 4.98 GiB
Duration : 2 h 7 min
Overall bit rate : 5 593 kb/s
Movie name : Запрещенный прием / Sucker Punch (2011)
Encoded date : UTC 2020-06-26 07:01:27
Writing application : mkvmerge v25.0.0 ('Prog Noir') 64-bit
Writing library : libebml v1.3.6 + libmatroska v1.4.9

Video
ID : 1
Format : AVC
Format/Info : Advanced Video Codec
Format profile : [email protected]
Format settings : CABAC / 11 Ref Frames
Format settings, CABAC : Yes
Format settings, ReFrames : 11 frames
Codec ID : V_MPEG4/ISO/AVC
Duration : 2 h 7 min
Bit rate : 2 006 kb/s
Width : 1 024 pixels
Height : 428 pixels
Display aspect ratio : 2.40:1
Frame rate mode : Constant
Frame rate : 23.976 (24000/1001) FPS
Color space : YUV
Chroma subsampling : 4:2:0
Bit depth : 8 bits
Scan type : Progressive
Bits/(Pixel*Frame) : 0.191
Stream size : 1.79 GiB (36%)
Title : MediaBit
Writing library : x264 core 157 r2958 57baac4
Encoding settings : cabac=1 / ref=11 / deblock=1:-3:-3 / analyse=0x3:0x133 / me=umh / subme=9 / psy=1 / psy_rd=1.00:0.15 / mixed_ref=1 / me_range=48 / chroma_me=1 / trellis=1 / 8x8dct=1 / cqm=0 / deadzone=21,11 / fast_pskip=1 / chroma_qp_offset=-3 / threads=6 / lookahead_threads=1 / sliced_threads=0 / nr=0 / decimate=1 / interlaced=0 / bluray_compat=0 / constrained_intra=0 / bframes=11 / b_pyramid=2 / b_adapt=2 / b_bias=11 / direct=3 / weightb=1 / open_gop=0 / weightp=2 / keyint=240 / keyint_min=24 / scenecut=23 / intra_refresh=0 / rc_lookahead=60 / rc=2pass / mbtree=1 / bitrate=2006 / ratetol=1.0 / qcomp=0.60 / qpmin=0 / qpmax=69 / qpstep=4 / cplxblur=20.0 / qblur=0.5 / ip_ratio=1.40 / aq=1:0.90
Language : Russian
Default : Yes
Forced : No

Audio #1
ID : 2
Format : AC-3
Format/Info : Audio Coding 3
Codec ID : A_AC3
Duration : 2 h 7 min
Bit rate mode : Constant
Bit rate : 448 kb/s
Channel(s) : 6 channels
Channel positions : Front: L C R, Side: L R, LFE
Sampling rate : 48.0 kHz
Frame rate : 31.250 FPS (1536 SPF)
Bit depth : 16 bits
Compression mode : Lossy
Stream size : 409 MiB (8%)
Title : DUB
Language : Russian
Service kind : Complete Main
Default : Yes
Forced : No

Audio #2
ID : 3
Format : AC-3
Format/Info : Audio Coding 3
Codec ID : A_AC3
Duration : 2 h 7 min
Bit rate mode : Constant
Bit rate : 448 kb/s
Channel(s) : 6 channels
Channel positions : Front: L C R, Side: L R, LFE
Sampling rate : 48.0 kHz
Frame rate : 31.250 FPS (1536 SPF)
Bit depth : 16 bits
Compression mode : Lossy
Stream size : 409 MiB (8%)
Title : DVO | Кубик в кубе
Language : Russian
Service kind : Complete Main
Default : No
Forced : No

Audio #3
ID : 4
Format : AC-3
Format/Info : Audio Coding 3
Codec ID : A_AC3
Duration : 2 h 7 min
Bit rate mode : Constant
Bit rate : 448 kb/s
Channel(s) : 6 channels
Channel positions : Front: L C R, Side: L R, LFE
Sampling rate : 48.0 kHz
Frame rate : 31.250 FPS (1536 SPF)
Bit depth : 16 bits
Compression mode : Lossy
Stream size : 409 MiB (8%)
Title : AVO | Матвеев
Language : Russian
Service kind : Complete Main
Default : No
Forced : No

Audio #4
ID : 5
Format : AC-3
Format/Info : Audio Coding 3
Codec ID : A_AC3
Duration : 2 h 7 min
Bit rate mode : Constant
Bit rate : 448 kb/s
Channel(s) : 6 channels
Channel positions : Front: L C R, Side: L R, LFE
Sampling rate : 48.0 kHz
Frame rate : 31.250 FPS (1536 SPF)
Bit depth : 16 bits
Compression mode : Lossy
Stream size : 409 MiB (8%)
Title : AVO | Гаврилов
Language : Russian
Service kind : Complete Main
Default : No
Forced : No

Audio #5
ID : 6
Format : AC-3
Format/Info : Audio Coding 3
Codec ID : A_AC3
Duration : 2 h 7 min
Bit rate mode : Constant
Bit rate : 448 kb/s
Channel(s) : 6 channels
Channel positions : Front: L C R, Side: L R, LFE
Sampling rate : 48.0 kHz
Frame rate : 31.250 FPS (1536 SPF)
Bit depth : 16 bits
Compression mode : Lossy
Stream size : 409 MiB (8%)
Title : VO | acolith
Language : Russian
Service kind : Complete Main
Default : No
Forced : No

Audio #6
ID : 7
Format : AC-3
Format/Info : Audio Coding 3
Codec ID : A_AC3
Duration : 2 h 7 min
Bit rate mode : Constant
Bit rate : 448 kb/s
Channel(s) : 6 channels
Channel positions : Front: L C R, Side: L R, LFE
Sampling rate : 48.0 kHz
Frame rate : 31.250 FPS (1536 SPF)
Bit depth : 16 bits
Compression mode : Lossy
Stream size : 409 MiB (8%)
Title : VO | Рапсодов
Language : Russian
Service kind : Complete Main
Default : No
Forced : No

Audio #7
ID : 8
Format : AC-3
Format/Info : Audio Coding 3
Codec ID : A_AC3
Duration : 2 h 7 min
Bit rate mode : Constant
Bit rate : 448 kb/s
Channel(s) : 6 channels
Channel positions : Front: L C R, Side: L R, LFE
Sampling rate : 48.0 kHz
Frame rate : 31.250 FPS (1536 SPF)
Bit depth : 16 bits
Compression mode : Lossy
Stream size : 409 MiB (8%)
Title : DUB | Ukrainian
Language : Ukrainian
Service kind : Complete Main
Default : No
Forced : No

Audio #8
ID : 9
Format : AC-3
Format/Info : Audio Coding 3
Codec ID : A_AC3
Duration : 2 h 7 min
Bit rate mode : Constant
Bit rate : 448 kb/s
Channel(s) : 6 channels
Channel positions : Front: L C R, Side: L R, LFE
Sampling rate : 48.0 kHz
Frame rate : 31.250 FPS (1536 SPF)
Bit depth : 16 bits
Compression mode : Lossy
Stream size : 409 MiB (8%)
Title : Original
Language : English
Service kind : Complete Main
Default : No
Forced : No

Text #1
ID : 10
Format : UTF-8
Codec ID : S_TEXT/UTF8
Codec ID/Info : UTF-8 Plain Text
Duration : 1 h 7 min
Bit rate : 5 b/s
Count of elements : 70
Stream size : 2.49 KiB (0%)
Title : Forced
Language : Russian
Default : Yes
Forced : No

Text #2
ID : 11
Format : UTF-8
Codec ID : S_TEXT/UTF8
Codec ID/Info : UTF-8 Plain Text
Duration : 2 h 1 min
Bit rate : 57 b/s
Count of elements : 1101
Stream size : 51.7 KiB (0%)
Title : Full [Voronine]
Language : Russian
Default : No
Forced : No

Text #3
ID : 12
Format : UTF-8
Codec ID : S_TEXT/UTF8
Codec ID/Info : UTF-8 Plain Text
Duration : 2 h 1 min
Bit rate : 64 b/s
Count of elements : 1271
Stream size : 57.9 KiB (0%)
Title : SDH [Voronine]
Language : Russian
Default : No
Forced : No

Text #4
ID : 13
Format : UTF-8
Codec ID : S_TEXT/UTF8
Codec ID/Info : UTF-8 Plain Text
Duration : 2 h 1 min
Bit rate : 66 b/s
Count of elements : 1095
Stream size : 59.1 KiB (0%)
Title : SDH
Language : Russian
Default : No
Forced : No

Text #5
ID : 14
Format : UTF-8
Codec ID : S_TEXT/UTF8
Codec ID/Info : UTF-8 Plain Text
Duration : 2 h 7 min
Bit rate : 35 b/s
Count of elements : 1089
Stream size : 33.4 KiB (0%)
Title : Full
Language : English
Default : No
Forced : No

Text #6
ID : 15
Format : UTF-8
Codec ID : S_TEXT/UTF8
Codec ID/Info : UTF-8 Plain Text
Duration : 2 h 7 min
Bit rate : 38 b/s
Count of elements : 1223
Stream size : 36.2 KiB (0%)
Title : SDH
Language : English
Default : No
Forced : No

Menu
00:00:00.000 : :00:00:00.000
00:05:59.985 : :00:05:59.985
00:12:25.703 : :00:12:25.703
00:24:59.456 : :00:24:59.456
00:36:15.590 : :00:36:15.590
00:42:35.720 : :00:42:35.720
00:57:42.501 : :00:57:42.501
01:01:29.936 : :01:01:29.936
01:21:13.118 : :01:21:13.118
01:37:03.526 : :01:37:03.526
01:53:19.543 : :01:53:19.543
02:01:45.757 : :02:01:45.757
Скриншоты

Релиз от:
 

Вложения

  • 15,7 KB Просмотры: 0
    Личеров 0
    Сидеров 0
    Файлов 1
    Объем 5 GB

Привет!

Мы группа людей которые решили помочь другим в решении их проблем, а так же пользователям с поиском самых свежих и качественных инфопродуктов. За 4 с небольшим месяца мы создали этот форум на который заходят ежедневно тысячи человек и посещаемость постоянно растёт. Мы создали панель лицензирования для защиты PHP скриптов от воровства и SEO панель для мониторинга наших сайтов и выбора верной стратегии их развития. Мы надеемся что то что мы создали пригодится Вам и возможно Вы поможете нам развиваться и совершенствоваться вместе с Вами.

Статистика форума

Темы
406.613
Сообщения
465.071
Пользователи
84.481
Новый пользователь
Огненная Катя

Приложения форума для iOS и Android


У ркн там нет власти ;)
Приватные разговоры
Помощь Пользователи
    Вы не присоединились ни к одной комнате.