За последнюю неделю опубликовано 73 новых материалов.
Инструкция новичку Путеводитель по форуму Прокси для Telegram Показать подсказки , это бомба!

Скачать Запасной игрок (1954) DVDRip от GeneralFilm бесплатно через торрент

  • Поучаствуй (в качестве покупателя) в любых пяти совместных покупках (кроме завершённых и "Моментальных") и получи группу "Новичок" навсегда -> ссылка на раздел
  • Получай до 480 рублей за каждого приглашенного пользователя!
    представляем Вам очередное расширение партнерской программы, подробности описаны тут -> ссылка
  • 90% материалов доступно к скачиванию после простой регистрации!
    Если же ты хочешь скачивать материалы без требования оставлять отзывы то получи группу "Новичок", 10 способов повышения описаны тут -> ссылка
  • К сожалению количество битых ссылок растет и мы уже не можем их оперативно восстанавливать поэтому просим помощи у каждого нашего пользователя.
    С сегодняшнего дня, за каждую восстановленную ссылку мы заплатим Вам.
    Подробнее тут -> ссылка
  • Перенесем твои заслуги с другого ресурса!
    Мы понимаем как сложно прокачивать аккаунты на форумах, вроде раскачал аккаунт, а тут появляется ресурс в 100 раз круче но тоже с системой прокачки и снова качать аккаунт...
    Предлагаем вам перенести Ваши заслуги на другом подобном ресурсе к нам.
    Подробности описаны тут -> ссылка
  • Вы можете получать по 2.5% с каждой покупки и продажи на маркете! Подробности в теме Партнёрская программа
Если Вы не хотите скачивать, Вы всегда можетепосмотретьонлайн, просто нажмите кнопку ниже :

Открыть плеер

Torrent_Bot

Торрент-Бот
Бот форума
4 Окт 2016
82
186
20
Название: Запасной игрок
Год выпуска: 1954
Жанр: Комедия
Выпущено: СССР
Режиссер: Семен Тимошенко
В ролях: Георгий Вицин, Владимир Кузнецов, Елена Тяпкина, Павел Кадочников, Татьяна Конюхова, Валентина Ушакова, Марк Бернес, Константин Адашевский, Владимир Белокуров, П. Поль, Александр Жуков, Э. Луценко, Антатолий Королькевич, Сергей Филиппов, Николай Рыбников

О фильме: Заводская команда "Синих Стрел" выходит в финал и отправляется в Сухуми на теплоходе для встречи с "Вымпелом", считающимся фаворитом. На теплоходе разыгрывается великолепная комедия ситуаций: подающий надежды запасной игрок Веснушкин влюблен в гимнастку, опасаясь, что та предпочитает зазнавшегося старшего брата, лучшего игрока той же команды. На борту находится также актер кино Светланов, переодетый стариком Дедушкиным для лучшего проникновения в образ будущей роли. Сотрудники института геронтологии принимают старика за профессора из Москвы Бабушкина, думая, что тот таким образом решил поближе узнать своих подчиненных. Старший Веснушкин, выпив винца, обижает "пожилого" человека, а тот вызывает его на боксерский матч, имея в этом виде спорта приличный опыт. Все это сплетено в динамично развивающийся сюжет с остроумными диалогами, а кульминацией служит сам матч, в котором Веснушкин-младший обеспечивает команде победу, заменив травмированного вратаря и взяв одиннадцатиметровый. В доброй, уютной картине много превосходных, запоминающихся песен и танцев. Особо хочу выделить сцену прощания в порту ревнивого мужа (Филиппов) с женой. Сама по себе она бы сделала честь лучшим голливудским комедиям.

Качество: DVDRip исходник (DVD-5)
Видео: XviD, 2224 Кбит/с, 720x544
Аудио: Русский, AC3, 6 ch, 448 Кбит/с
Продолжительность: 01:18:07

MediaInfo
General
Complete name : G:Запасной игрок 1954 DVDRip.avi
Format : AVI
Format/Info : Audio Video Interleave
File size : 1.46 GiB
Duration : 1h 18mn
Overall bit rate : 2 682 Kbps
Writing application : VirtualDubModRus 1.5.10.2 (build 2542/release)
Writing library : VirtualDubMod build 2542/release

Video
ID : 0
Format : MPEG-4 Visual
Format profile : Advanced [email protected]
Format settings, BVOP : 2
Format settings, QPel : No
Format settings, GMC : No warppoints
Format settings, Matrix : Default (H.263)
Codec ID : XVID
Codec ID/Hint : XviD
Duration : 1h 18mn
Bit rate : 2 225 Kbps
Width : 720 pixels
Height : 544 pixels
Display aspect ratio : 4:3
Frame rate : 25.000 fps
Color space : YUV
Chroma subsampling : 4:2:0
Bit depth : 8 bits
Scan type : Progressive
Compression mode : Lossy
Bits/(Pixel*Frame) : 0.227
Stream size : 1.21 GiB (83%)
Writing library : XviD 57

Audio
ID : 1
Format : AC-3
Format/Info : Audio Coding 3
Mode extension : CM (complete main)
Format settings, Endianness : Big
Codec ID : 2000
Duration : 1h 18mn
Bit rate mode : Constant
Bit rate : 448 Kbps
Channel(s) : 6 channels
Channel positions : Front: L C R, Side: L R, LFE
Sampling rate : 48.0 KHz
Bit depth : 16 bits
Compression mode : Lossy
Stream size : 250 MiB (17%)
Alignment : Split accross interleaves
Interleave, duration : 40 ms (1.00 video frame)
Interleave, preload duration : 500 ms
Скриншоты


Релиз от:
 

Вложения

  • 15,6 KB Просмотры: 0
    Личеров 0
    Сидеров 0
    Файлов 1
    Объем 1,5 GB

Привет!

Мы группа людей которые решили помочь другим в решении их проблем, а так же пользователям с поиском самых свежих и качественных инфопродуктов. За 4 с небольшим месяца мы создали этот форум на который заходят ежедневно тысячи человек и посещаемость постоянно растёт. Мы создали панель лицензирования для защиты PHP скриптов от воровства и SEO панель для мониторинга наших сайтов и выбора верной стратегии их развития. Мы надеемся что то что мы создали пригодится Вам и возможно Вы поможете нам развиваться и совершенствоваться вместе с Вами.

Статистика форума

Темы
412.172
Сообщения
471.203
Пользователи
91.652
Новый пользователь
Федора

Приложения форума для iOS и Android


У ркн там нет власти ;)
Приватные разговоры
Помощь Пользователи
    Вы не присоединились ни к одной комнате.