За последнюю неделю опубликовано 34 новых материалов.
Инструкция новичку Путеводитель по форуму Прокси для Telegram Показать подсказки , это бомба!

Скачать Закон о детях / The Children Act (2017) WEB-DL 1080p | HDrezka Studio бесплатно через торрент

  • Поучаствуй (в качестве покупателя) в любых пяти совместных покупках (кроме завершённых и "Моментальных") и получи группу "Новичок" навсегда -> ссылка на раздел
  • Получай до 480 рублей за каждого приглашенного пользователя!
    представляем Вам очередное расширение партнерской программы, подробности описаны тут -> ссылка
  • 90% материалов доступно к скачиванию после простой регистрации!
    Если же ты хочешь скачивать материалы без требования оставлять отзывы то получи группу "Новичок", 10 способов повышения описаны тут -> ссылка
  • К сожалению количество битых ссылок растет и мы уже не можем их оперативно восстанавливать поэтому просим помощи у каждого нашего пользователя.
    С сегодняшнего дня, за каждую восстановленную ссылку мы заплатим Вам.
    Подробнее тут -> ссылка
  • Перенесем твои заслуги с другого ресурса!
    Мы понимаем как сложно прокачивать аккаунты на форумах, вроде раскачал аккаунт, а тут появляется ресурс в 100 раз круче но тоже с системой прокачки и снова качать аккаунт...
    Предлагаем вам перенести Ваши заслуги на другом подобном ресурсе к нам.
    Подробности описаны тут -> ссылка
  • Вы можете получать по 2.5% с каждой покупки и продажи на маркете! Подробности в теме Партнёрская программа
Если Вы не хотите скачивать, Вы всегда можетепосмотретьонлайн, просто нажмите кнопку ниже :

Открыть плеер

Torrent_Bot

Торрент-Бот
Бот форума
4 Окт 2016
93
155
20
Закон о детях / The Children Act

Страна: Великобритания
Производство: BBC Films, FilmNation Entertainment, Toledo Productions
Год выпуска: 2017
Жанр:драма
Продолжительность: 01:45:43

Режиссер: Ричард Эйр
Автор сценария: Иэн МакЮэн

В ролях: Эмма Томпсон, Стэнли Туччи, Финн Уайтхед, Бен Чаплин, Рози Кавальеро, Джейсон Уоткинс, Никки Амука-Бёрд, Энтони Калф

Описание: Судья Фиона Мэй, специализирующаяся на семейных делах, сталкивается с непростой дилеммой: Адам, которого от совершеннолетия отделяют всего три месяца жизни, по религиозным соображениям отказывается от переливания крови. Сможет ли Фиона заставить молодого человека жить против его воли..?



Перевод: Профессиональный (многоголосый, закадровый) | HDrezka Studio
Субтитры: нет


Качество: WEB-DL 1080p
Формат: МКV
Видео кодек: AVC
Аудио кодек: АС3
Видео: 1920х1036 (1.85:1), 23.976 fps, MPEG-4 AVC ~5 091 kbps avg
Аудио №1: 48.0 kHz, AC3 Dolby Digital, 2/0 (L,R) ch, ~192 kbps | RUS | HDrezka Studio
Аудио №2: 48.0 kHz, AC3 Dolby Digital, 3/2 (L,C,R,l,r) + LFE ch, ~384 kbps | ENG

Дата премьеры (мир): 9 сентября 2017



Media Info
General
Unique ID : 236782196936637064925644311835006395379 (0xB22297A373531495BE1A536D9B76E3F3)
Format : Matroska
Format version : Version 2
File size : 4.27 GiB
Duration : 1 h 45 min
Overall bit rate : 5 782 kb/s
Encoded date : UTC 2018-09-24 15:19:42
Writing application : mkvmerge v7.8.0 ('River Man') 32bit built on Apr 3 2015 12:11:22
Writing library : libebml v1.3.1 + libmatroska v1.4.2

Video
ID : 1
Format : AVC
Format/Info : Advanced Video Codec
Format profile : High@L4
Format settings, CABAC : Yes
Format settings, RefFrames : 4 frames
Codec ID : V_MPEG4/ISO/AVC
Duration : 1 h 45 min
Bit rate : 5 091 kb/s
Width : 1 920 pixels
Height : 1 036 pixels
Display aspect ratio : 1.85:1
Frame rate mode : Constant
Frame rate : 23.976 (24000/1001) FPS
Color space : YUV
Chroma subsampling : 4:2:0
Bit depth : 8 bits
Scan type : Progressive
Bits/(Pixel*Frame) : 0.107
Stream size : 3.76 GiB (88%)
Language : English
Default : Yes
Forced : No
Color range : Limited
Color primaries : BT.709
Transfer characteristics : BT.709
Matrix coefficients : BT.709
Statistics Tags Issue : mkvmerge v11.0.0 ('Alive') 64bit 2018-09-11 04:19:41 / mkvmerge v7.8.0 ('River Man') 32bit built on Apr 3 2015 12:11:22 2018-09-24 15:19:42
FromStats_BitRate : 5204377
FromStats_Duration : 01:45:42.836000000
FromStats_FrameCount : 152076
FromStats_StreamSize : 4126314371

Audio #1
ID : 2
Format : AC-3
Format/Info : Audio Coding 3
Format settings, Endianness : Big
Codec ID : A_AC3
Duration : 1 h 45 min
Bit rate mode : Constant
Bit rate : 192 kb/s
Channel(s) : 2 channels
Channel positions : Front: L R
Sampling rate : 48.0 kHz
Frame rate : 31.250 FPS (1536 SPF)
Bit depth : 16 bits
Compression mode : Lossy
Delay relative to video : -42 ms
Stream size : 145 MiB (3%)
Language : Russian
Service kind : Complete Main
Default : Yes
Forced : Yes

Audio #2
ID : 3
Format : AC-3
Format/Info : Audio Coding 3
Format settings, Endianness : Big
Codec ID : A_AC3
Duration : 1 h 45 min
Bit rate mode : Constant
Bit rate : 384 kb/s
Channel(s) : 6 channels
Channel positions : Front: L C R, Side: L R, LFE
Sampling rate : 48.0 kHz
Frame rate : 31.250 FPS (1536 SPF)
Bit depth : 16 bits
Compression mode : Lossy
Delay relative to video : -42 ms
Stream size : 290 MiB (7%)
Language : English
Service kind : Complete Main
Default : No
Forced : No
Statistics Tags Issue : mkvmerge v11.0.0 ('Alive') 64bit 2018-09-11 04:19:41 / mkvmerge v7.8.0 ('River Man') 32bit built on Apr 3 2015 12:11:22 2018-09-24 15:19:42
FromStats_BitRate : 384000
FromStats_Duration : 01:45:42.880000000
FromStats_FrameCount : 198215
FromStats_StreamSize : 304458240

Menu
00:00:00.000 : en:1
00:06:08.743 : en:2
00:12:55.608 : en:3
00:22:10.579 : en:4
00:25:37.744 : en:5
00:31:38.187 : en:6
00:39:16.728 : en:7
00:44:36.923 : en:8
00:51:41.472 : en:9
00:58:48.732 : en:10
01:04:22.816 : en:11
01:08:41.533 : en:12
01:19:07.742 : en:13
01:29:15.099 : en:14
01:32:35.215 : en:15
01:38:59.432 : en:16
Скриншоты
 

Вложения

  • 22,3 KB Просмотры: 1
    Личеров 0
    Сидеров 0
    Файлов 1
    Объем 4,3 GB

Привет!

Мы группа людей которые решили помочь другим в решении их проблем, а так же пользователям с поиском самых свежих и качественных инфопродуктов. За 4 с небольшим месяца мы создали этот форум на который заходят ежедневно тысячи человек и посещаемость постоянно растёт. Мы создали панель лицензирования для защиты PHP скриптов от воровства и SEO панель для мониторинга наших сайтов и выбора верной стратегии их развития. Мы надеемся что то что мы создали пригодится Вам и возможно Вы поможете нам развиваться и совершенствоваться вместе с Вами.

Статистика форума

Темы
406.543
Сообщения
464.661
Пользователи
83.272
Новый пользователь
viyiya3226

Приложения форума для iOS и Android


У ркн там нет власти ;)
Приватные разговоры
Помощь Пользователи
    Вы не присоединились ни к одной комнате.