За последнюю неделю опубликовано 49 новых материалов.
Инструкция новичку Путеводитель по форуму Прокси для Telegram Показать подсказки , это бомба!

Скачать Загар / Suntan (2016) BDRip-AVC от ExKinoRay | L1 бесплатно через торрент

  • Поучаствуй (в качестве покупателя) в любых пяти совместных покупках (кроме завершённых и "Моментальных") и получи группу "Новичок" навсегда -> ссылка на раздел
  • Получай до 480 рублей за каждого приглашенного пользователя!
    представляем Вам очередное расширение партнерской программы, подробности описаны тут -> ссылка
  • 90% материалов доступно к скачиванию после простой регистрации!
    Если же ты хочешь скачивать материалы без требования оставлять отзывы то получи группу "Новичок", 10 способов повышения описаны тут -> ссылка
  • К сожалению количество битых ссылок растет и мы уже не можем их оперативно восстанавливать поэтому просим помощи у каждого нашего пользователя.
    С сегодняшнего дня, за каждую восстановленную ссылку мы заплатим Вам.
    Подробнее тут -> ссылка
  • Перенесем твои заслуги с другого ресурса!
    Мы понимаем как сложно прокачивать аккаунты на форумах, вроде раскачал аккаунт, а тут появляется ресурс в 100 раз круче но тоже с системой прокачки и снова качать аккаунт...
    Предлагаем вам перенести Ваши заслуги на другом подобном ресурсе к нам.
    Подробности описаны тут -> ссылка
  • Вы можете получать по 2.5% с каждой покупки и продажи на маркете! Подробности в теме Партнёрская программа
Если Вы не хотите скачивать, Вы всегда можетепосмотретьонлайн, просто нажмите кнопку ниже :

Открыть плеер

Torrent_Bot

Торрент-Бот
Бот форума
4 Окт 2016
93
160
20


Информация о фильме
Название: Загар
Оригинальное название: Suntan
Год выхода: 2016
Жанр: Драма, мелодрама, комедия
Режиссер: Аргирис Пападимитропулос
В ролях: Макис Пападимитру, Элли Трингоу, Дими Паллис, Хара Костали, Милоу Ван Гроезен, Маркус Коллен, Янис Тсортекис, Павлос Оркопулос, Мария Каллимани, Марисса Триандафиллиду

О фильме:
Уже немолодой Костис назначен врачом на небольшой остров, где и проводит скучную зиму. Однако с наступлением лета все кругом оживает, пляжи заполняются отдыхающими, нудистами, безумными вечеринками. Костис по уши влюбляется в молодую кокетливую Анну и во что бы то ни стало хочет произвести на нее впечатление. Теперь почти все время он тратит на пьянки и вечеринки. Приключение, начавшееся как возврат к давно ушедшей молодости, перерастает в навязчивую идею, и Костис уже на все готов, лишь бы удержать Анну.



Страна: Греция, Германия
Студия: Faliro House Productions, FassB Filmproduktion, Foss Productions
Продолжительность: 01:44:50
Перевод: Любительский одноголосый | Cmert (без цензуры)

Файл
Формат: MKV
Качество: BDRip-AVC
Видео: MPEG-4 AVC, 1024x384, - 1920 Кбит/с
Аудио: AC3, 2 ch, 128 Кбит/с
Субтитры: Английские

***Фильм содержит откровенные сцены, 18+

MI
Общее
Уникальный идентификатор : 107767294151588033990586982761628911837 (0x511339D37B74E826AB56225F5F8348DD)
Полное имя : D:MOVIESSuntan.2016.BDRip-AVC.ExKinoRay.mkv
Формат : Matroska
Версия формата : Version 4
Размер файла : 1,50 Гбайт
Продолжительность : 1 ч. 44 м.
Общий поток : 2 046 Кбит/сек
Дата кодирования : UTC 2020-07-26 15:47:08
Программа кодирования : mkvmerge v45.0.0 ('Heaven in Pennies') 64-bit
Библиотека кодирования : libebml v1.3.10 + libmatroska v1.5.2

Видео
Идентификатор : 1
Формат : AVC
Формат/Информация : Advanced Video Codec
Профиль формата : [email protected]
Настройки формата : CABAC / 13 Ref Frames
Параметр CABAC формата : Да
Параметр RefFrames формата : 13 кадров
Идентификатор кодека : V_MPEG4/ISO/AVC
Продолжительность : 1 ч. 44 м.
Битрейт : 1 920 Кбит/сек
Ширина : 1 024 пикселя
Высота : 384 пикселя
Соотношение сторон : 2,667
Режим частоты кадров : Постоянный
Частота кадров : 24,000 кадра/сек
Цветовое пространство : YUV
Субдискретизация насыщенности : 4:2:0
Битовая глубина : 8 бит
Тип развёртки : Прогрессивная
Бит/(Пиксели*Кадры) : 0.203
Размер потока : 1,40 Гбайт (94%)
Библиотека кодирования : x264 core 160 r3000 33f9e14
Настройки программы : cabac=1 / ref=13 / deblock=1:-3:-3 / analyse=0x3:0x133 / me=umh / subme=10 / psy=1 / psy_rd=1.05:0.09 / mixed_ref=1 / me_range=32 / chroma_me=1 / trellis=2 / 8x8dct=1 / cqm=0 / deadzone=21,11 / fast_pskip=0 / chroma_qp_offset=-3 / threads=6 / lookahead_threads=1 / sliced_threads=0 / nr=0 / decimate=0 / interlaced=0 / bluray_compat=0 / constrained_intra=0 / bframes=11 / b_pyramid=2 / b_adapt=2 / b_bias=0 / direct=3 / weightb=1 / open_gop=0 / weightp=2 / keyint=240 / keyint_min=24 / scenecut=40 / intra_refresh=0 / rc=2pass / mbtree=0 / bitrate=1920 / ratetol=1.0 / qcomp=0.60 / qpmin=0 / qpmax=69 / qpstep=4 / cplxblur=20.0 / qblur=0.5 / ip_ratio=1.40 / pb_ratio=1.30 / aq=1:1.00
Язык : English
Default : Да
Forced : Нет
Цветовой диапазон : Limited
Основные цвета : BT.709
Характеристики трансфера : BT.709
Коэффициенты матрицы : BT.709

Аудио
Идентификатор : 2
Формат : AC-3
Формат/Информация : Audio Coding 3
Коммерческое название : Dolby Digital
Идентификатор кодека : A_AC3
Продолжительность : 1 ч. 44 м.
Вид битрейта : Постоянный
Битрейт : 128 Кбит/сек
Каналы : 2 канала
Channel layout : L R
Частота : 48,0 КГц
Частота кадров : 31,250 кадров/сек (1536 SPF)
Метод сжатия : С потерями
Размер потока : 95,6 Мбайт (6%)
Заголовок : VO (Cmert)
Язык : Russian
Service kind : Complete Main
Default : Да
Forced : Нет

Текст
Идентификатор : 3
Формат : UTF-8
Идентификатор кодека : S_TEXT/UTF8
Идентификатор кодека/Информация : UTF-8 Plain Text
Продолжительность : 1 ч. 33 м.
Битрейт : 28 бит/сек
Count of elements : 638
Размер потока : 19,5 Кбайт (0%)
Язык : English
Default : Нет
Forced : Нет

Меню
00:00:00.000 : : Chapter 01
00:07:32.083 : : Chapter 02
00:15:03.292 : : Chapter 03
00:21:36.833 : : Chapter 04
00:30:37.292 : : Chapter 05
00:37:00.667 : : Chapter 06
00:43:13.667 : : Chapter 07
00:50:53.167 : : Chapter 08
00:58:21.125 : : Chapter 09
01:09:55.708 : : Chapter 10
01:17:44.875 : : Chapter 11
01:26:47.292 : : Chapter 12
01:40:10.375 : : Chapter 13
Скриншоты

 

Вложения

  • 16,1 KB Просмотры: 0
    Личеров 0
    Сидеров 0
    Файлов 1
    Объем 1,5 GB

Привет!

Мы группа людей которые решили помочь другим в решении их проблем, а так же пользователям с поиском самых свежих и качественных инфопродуктов. За 4 с небольшим месяца мы создали этот форум на который заходят ежедневно тысячи человек и посещаемость постоянно растёт. Мы создали панель лицензирования для защиты PHP скриптов от воровства и SEO панель для мониторинга наших сайтов и выбора верной стратегии их развития. Мы надеемся что то что мы создали пригодится Вам и возможно Вы поможете нам развиваться и совершенствоваться вместе с Вами.

Статистика форума

Темы
406.639
Сообщения
465.114
Пользователи
84.564
Новый пользователь
pasha1976

Приложения форума для iOS и Android


У ркн там нет власти ;)
Приватные разговоры
Помощь Пользователи
    Вы не присоединились ни к одной комнате.