За последнюю неделю опубликовано 47 новых материалов.
Инструкция новичку Путеводитель по форуму Прокси для Telegram Показать подсказки , это бомба!

Скачать Загадочное убийство в Манхэттэне / Manhattan Murder Mystery (1993) WEB-DLRip-AVC от MediaBit | P, P2, A бесплатно через торрент

  • Поучаствуй (в качестве покупателя) в любых пяти совместных покупках (кроме завершённых и "Моментальных") и получи группу "Новичок" навсегда -> ссылка на раздел
  • Получай до 480 рублей за каждого приглашенного пользователя!
    представляем Вам очередное расширение партнерской программы, подробности описаны тут -> ссылка
  • 90% материалов доступно к скачиванию после простой регистрации!
    Если же ты хочешь скачивать материалы без требования оставлять отзывы то получи группу "Новичок", 10 способов повышения описаны тут -> ссылка
  • К сожалению количество битых ссылок растет и мы уже не можем их оперативно восстанавливать поэтому просим помощи у каждого нашего пользователя.
    С сегодняшнего дня, за каждую восстановленную ссылку мы заплатим Вам.
    Подробнее тут -> ссылка
  • Перенесем твои заслуги с другого ресурса!
    Мы понимаем как сложно прокачивать аккаунты на форумах, вроде раскачал аккаунт, а тут появляется ресурс в 100 раз круче но тоже с системой прокачки и снова качать аккаунт...
    Предлагаем вам перенести Ваши заслуги на другом подобном ресурсе к нам.
    Подробности описаны тут -> ссылка
  • Вы можете получать по 2.5% с каждой покупки и продажи на маркете! Подробности в теме Партнёрская программа
Если Вы не хотите скачивать, Вы всегда можетепосмотретьонлайн, просто нажмите кнопку ниже :

Открыть плеер

Torrent_Bot

Торрент-Бот
Бот форума
4 Окт 2016
93
160
20



Информация о фильме
Название: Загадочное убийство в Манхэттэне
Оригинальное название: Manhattan Murder Mystery
Год выхода: 1993
Жанр: Комедия, детектив
Режиссер: Вуди Аллен
В ролях: Вуди Аллен, Дайан Китон, Алан Алда, Анжелика Хьюстон, Джерри Эдлер, Линн Коэн, Рон Рифкин, Джой Бехар, Уильям Эдди, Джон Думаньян, Сильвия Каудерс, Айра Уилер, Мелани Норрис, Мардж Редмонд, Зак Брафф, Джордж Дж. Мэнос, Линда Тейлор, Аида Туртурро, Джон Костелло, Фрэнк Пеллегрино

О фильме: Кэрол и Липтон пожилая супружеская пара. Они знакомятся с соседями по этажу Лилианой и Полом, которые уже тоже много лет живут в браке. Проходит пару дней Кэрол и Липтон узнают о том, что Лилиан скоропостижно умерла. Однако Липтона совершенно не расстроила эта новость, ведь они знакомы с соседями всего несколько дней, и он не успел к ним привязаться, но его супруга подозревает, что в этом событии есть нечто темное и зловещее. Странная смерть соседки не дает Кэрол покоя. Она уговаривает своего супруга начать собственное расследование этой смерти, но он только отмахивается рукой от нее.



Страна: США
Студия: TriStar Pictures
Продолжительность: 01:47:30
Перевод: Профессиональный многоголосый, профессиональный двухголосый, авторский

Файл
Кодек: MPEG-4 AVC
Качество: WEB-DLRip-AVC
Видео: 2126 Кбит/с, 1024x576, 23.976 кадр/с
Звук:
Аудио 1: AC3, 2 ch, 192 kbps, 16 bits, 48.0 KHz - MVO | Первый канал
Аудио 2: AC3, 2 ch, 192 kbps, 16 bits, 48.0 KHz - DVO # 1
Аудио 3: AC3, 2 ch, 192 kbps, 16 bits, 48.0 KHz - DVO # 2
Аудио 4: AC3, 2 ch, 192 kbps, 16 bits, 48.0 KHz - AVO | Л. Володарский
Аудио 5: AC3, 2 ch, 192 kbps, 16 bits, 48.0 KHz - Оригинал
Субтитры: Английские

Семпл
MI
Общее
Уникальный идентификатор : 113981938744509077263715071342034073321 (0x55C01F760788B25D03565DD99DDCB6E9)
Полное имя : D:2020 рипыВсплытиеУбийствоZagadochnoe.ubiystvo.v.Manhettene.1993.x264.WEB-DLRip(AVC)-MediaBit.mkv
Формат : Matroska
Версия формата : Version 4
Размер файла : 2,32 Гбайт
Продолжительность : 1 ч. 47 м.
Общий поток : 3 087 Кбит/сек
Название фильма : Загадочное убийство в Манхэттэне / Manhattan Murder Mystery (1993)
Дата кодирования : UTC 2020-07-05 09:40:10
Программа кодирования : mkvmerge v25.0.0 ('Prog Noir') 64-bit
Библиотека кодирования : libebml v1.3.6 + libmatroska v1.4.9

Видео
Идентификатор : 1
Формат : AVC
Формат/Информация : Advanced Video Codec
Профиль формата : [email protected]
Настройки формата : CABAC / 11 Ref Frames
Параметр CABAC формата : Да
Параметр RefFrames формата : 11 кадров
Идентификатор кодека : V_MPEG4/ISO/AVC
Продолжительность : 1 ч. 47 м.
Битрейт : 2 126 Кбит/сек
Ширина : 1 024 пикселя
Высота : 576 пикселей
Соотношение сторон : 16:9
Режим частоты кадров : Постоянный
Частота кадров : 23,976 (24000/1001) кадра/сек
Цветовое пространство : YUV
Субдискретизация насыщенности : 4:2:0
Битовая глубина : 8 бит
Тип развёртки : Прогрессивная
Бит/(Пиксели*Кадры) : 0.150
Размер потока : 1,60 Гбайт (69%)
Заголовок : MediaBit
Библиотека кодирования : x264 core 146 r2538 121396c
Настройки программы : cabac=1 / ref=11 / deblock=1:-3:-3 / analyse=0x3:0x113 / me=umh / subme=11 / psy=1 / psy_rd=1.00:0.20 / mixed_ref=1 / me_range=32 / chroma_me=1 / trellis=2 / 8x8dct=1 / cqm=0 / deadzone=21,11 / fast_pskip=0 / chroma_qp_offset=-3 / threads=6 / lookahead_threads=1 / sliced_threads=0 / nr=0 / decimate=0 / interlaced=0 / bluray_compat=0 / constrained_intra=0 / bframes=11 / b_pyramid=2 / b_adapt=2 / b_bias=0 / direct=3 / weightb=1 / open_gop=1 / weightp=2 / keyint=240 / keyint_min=23 / scenecut=40 / intra_refresh=0 / rc_lookahead=40 / rc=2pass / mbtree=0 / bitrate=2126 / ratetol=1.0 / qcomp=0.60 / qpmin=0 / qpmax=69 / qpstep=4 / cplxblur=20.0 / qblur=0.5 / vbv_maxrate=14000 / vbv_bufsize=14000 / nal_hrd=none / filler=0 / ip_ratio=1.40 / pb_ratio=1.30 / aq=1:1.00
Язык : Russian
Default : Да
Forced : Нет

Аудио #1
Идентификатор : 2
Формат : AC-3
Формат/Информация : Audio Coding 3
Коммерческое название : Dolby Digital
Идентификатор кодека : A_AC3
Продолжительность : 1 ч. 47 м.
Вид битрейта : Постоянный
Битрейт : 192 Кбит/сек
Каналы : 2 канала
Channel layout : L R
Частота : 48,0 КГц
Частота кадров : 31,250 кадров/сек (1536 SPF)
Метод сжатия : С потерями
Размер потока : 148 Мбайт (6%)
Заголовок : MVO | 1 канал
Язык : Russian
Service kind : Complete Main
Default : Нет
Forced : Нет

Аудио #2
Идентификатор : 3
Формат : AC-3
Формат/Информация : Audio Coding 3
Коммерческое название : Dolby Digital
Идентификатор кодека : A_AC3
Продолжительность : 1 ч. 47 м.
Вид битрейта : Постоянный
Битрейт : 192 Кбит/сек
Каналы : 2 канала
Channel layout : L R
Частота : 48,0 КГц
Частота кадров : 31,250 кадров/сек (1536 SPF)
Метод сжатия : С потерями
Размер потока : 148 Мбайт (6%)
Заголовок : DVO 1
Язык : Russian
Service kind : Complete Main
Default : Да
Forced : Нет

Аудио #3
Идентификатор : 4
Формат : AC-3
Формат/Информация : Audio Coding 3
Коммерческое название : Dolby Digital
Идентификатор кодека : A_AC3
Продолжительность : 1 ч. 47 м.
Вид битрейта : Постоянный
Битрейт : 192 Кбит/сек
Каналы : 2 канала
Channel layout : L R
Частота : 48,0 КГц
Частота кадров : 31,250 кадров/сек (1536 SPF)
Метод сжатия : С потерями
Размер потока : 148 Мбайт (6%)
Заголовок : DVO 2
Язык : Russian
Service kind : Complete Main
Default : Нет
Forced : Нет

Аудио #4
Идентификатор : 5
Формат : AC-3
Формат/Информация : Audio Coding 3
Коммерческое название : Dolby Digital
Идентификатор кодека : A_AC3
Продолжительность : 1 ч. 47 м.
Вид битрейта : Постоянный
Битрейт : 192 Кбит/сек
Каналы : 2 канала
Channel layout : L R
Частота : 48,0 КГц
Частота кадров : 31,250 кадров/сек (1536 SPF)
Метод сжатия : С потерями
Размер потока : 148 Мбайт (6%)
Заголовок : AVO | Володарский
Язык : Russian
Service kind : Complete Main
Default : Нет
Forced : Нет

Аудио #5
Идентификатор : 6
Формат : AC-3
Формат/Информация : Audio Coding 3
Коммерческое название : Dolby Digital
Идентификатор кодека : A_AC3
Продолжительность : 1 ч. 47 м.
Вид битрейта : Постоянный
Битрейт : 192 Кбит/сек
Каналы : 2 канала
Channel layout : L R
Частота : 48,0 КГц
Частота кадров : 31,250 кадров/сек (1536 SPF)
Метод сжатия : С потерями
Размер потока : 148 Мбайт (6%)
Заголовок : Original
Язык : English
Service kind : Complete Main
Default : Нет
Forced : Нет

Текст
Идентификатор : 7
Формат : UTF-8
Идентификатор кодека : S_TEXT/UTF8
Идентификатор кодека/Информация : UTF-8 Plain Text
Продолжительность : 1 ч. 43 м.
Битрейт : 91 бит/сек
Count of elements : 1478
Размер потока : 69,3 Кбайт (0%)
Язык : English
Default : Нет
Forced : Нет

Меню
00:00:00.000 : en:Start
00:02:24.000 : en:Meeting The Houses
00:07:56.000 : en:Swap Meet
00:09:10.000 : en:Heart Attack
00:10:58.000 : en:At Elaine's
00:12:59.000 : en:Suspicious
00:16:38.000 : en:The First Clue
00:27:27.000 : en:Hide & Seek
00:31:17.000 : en:Larry & Marica
00:37:16.000 : en:Stakeout
00:41:15.000 : en:At The Theaatre
00:46:29.000 : en:Liptons Meet Marcia
00:48:01.000 : en:Wine-Tasting
00:49:58.000 : en:Spotting Mrs. House
00:55:22.000 : en:Tracking Lilian House
00:58:00.000 : en:poker Lessons
01:02:46.000 : en:Room 611
01:07:58.000 : en:"Larry...The Lights!"
01:08:50.000 : en:Back To 611
01:11:02.000 : en:In The Elevator
01:15:35.000 : en:"Sing, Sing, Sing"
01:21:14.000 : en:How To Catch Him
01:28:10.000 : en:The Audition
01:30:07.000 : en:Cut & Splice
01:37:06.000 : en:phoning Mr. House
01:38:31.000 : en:Calling His Bluff
01:39:39.000 : en:The Lady From Shanghai
01:42:38.000 : en:Marcia Explains All
Скриншоты

Релиз от:
 

Вложения

  • 14,9 KB Просмотры: 0
    Личеров 0
    Сидеров 0
    Файлов 1
    Объем 2,3 GB

Привет!

Мы группа людей которые решили помочь другим в решении их проблем, а так же пользователям с поиском самых свежих и качественных инфопродуктов. За 4 с небольшим месяца мы создали этот форум на который заходят ежедневно тысячи человек и посещаемость постоянно растёт. Мы создали панель лицензирования для защиты PHP скриптов от воровства и SEO панель для мониторинга наших сайтов и выбора верной стратегии их развития. Мы надеемся что то что мы создали пригодится Вам и возможно Вы поможете нам развиваться и совершенствоваться вместе с Вами.

Статистика форума

Темы
406.639
Сообщения
465.113
Пользователи
84.584
Новый пользователь
vax51371

Приложения форума для iOS и Android


У ркн там нет власти ;)
Приватные разговоры
Помощь Пользователи
    Вы не присоединились ни к одной комнате.