За последнюю неделю опубликовано 82 новых материалов.
Инструкция новичку Путеводитель по форуму Прокси для Telegram Показать подсказки , это бомба!

Скачать Загадочное убийство / Murder Mystery (2019) WEB-DL-HEVC 1080p | HDR | Пифагор бесплатно через торрент

  • Поучаствуй (в качестве покупателя) в любых пяти совместных покупках (кроме завершённых и "Моментальных") и получи группу "Новичок" навсегда -> ссылка на раздел
  • Получай до 480 рублей за каждого приглашенного пользователя!
    представляем Вам очередное расширение партнерской программы, подробности описаны тут -> ссылка
  • 90% материалов доступно к скачиванию после простой регистрации!
    Если же ты хочешь скачивать материалы без требования оставлять отзывы то получи группу "Новичок", 10 способов повышения описаны тут -> ссылка
  • К сожалению количество битых ссылок растет и мы уже не можем их оперативно восстанавливать поэтому просим помощи у каждого нашего пользователя.
    С сегодняшнего дня, за каждую восстановленную ссылку мы заплатим Вам.
    Подробнее тут -> ссылка
  • Перенесем твои заслуги с другого ресурса!
    Мы понимаем как сложно прокачивать аккаунты на форумах, вроде раскачал аккаунт, а тут появляется ресурс в 100 раз круче но тоже с системой прокачки и снова качать аккаунт...
    Предлагаем вам перенести Ваши заслуги на другом подобном ресурсе к нам.
    Подробности описаны тут -> ссылка
  • Вы можете получать по 2.5% с каждой покупки и продажи на маркете! Подробности в теме Партнёрская программа
Если Вы не хотите скачивать, Вы всегда можетепосмотретьонлайн, просто нажмите кнопку ниже :

Открыть плеер

Torrent_Bot

Торрент-Бот
Бот форума
4 Окт 2016
104
152
20


Информация о фильме
Название: Загадочное убийство
Оригинальное название: Murder Mystery
Год выхода: 2019
Жанр: Комедия, детектив


Режиссер: Кайл Ньюачек


В ролях: Дженнифер Энистон, Адам Сэндлер, Джемма Артертон, Люк Эванс, Джеки Сэндлер, Оулавюр Дарри Оулафссон, Джон Кани, Теренс Стэмп, Сиори Куцуна, Элен Кардона, Дэвид Уоллиамс, Адиль Ахтар, Суфе Брэдшоу, Пилар Холлэнд, Хелена Мари Патт, Роуз Мария Вильде


О фильме: Американская супружеская пара отправляется в отпуск в Европу и становится не только свидетелем убийства престарелого миллионера, но и главным подозреваемым.





Страна: США
Продолжительность: 01:37:47
Перевод: Профессиональный (дублированный) | Пифагор по заказу Netflix


Файл
Кодек: H.265
Качество: WEB-DL-HEVC 1080p | HDR
Видео: HEVC, 1920x1080 (16:9), 24.000 fps, 5 353 kb/s
Аудио 1: E-AC3, 48.0 kHz, 6 ch, 640 kb/s | RUS
Аудио 4: E-AC3, 48.0 kHz, 6 ch, 640 kb/s | ENG
Субтитры: Русские (форс., полные), Английские (SDH) и др.

Сэмпл

MI
General
Unique ID : 240935709527006853058940174400777266010 (0xB542879EAE3FDFDD92F5E9E23706A35A)
Complete name : Murder.Mystery.2019.1080p.WEB-DL.HDR.HEVC.mkv
Format : Matroska
Format version : Version 4
File size : 4.51 GiB
Duration : 1 h 37 min
Overall bit rate : 6 598 kb/s
Encoded date : UTC 2019-06-15 10:02:39
Writing application : mkvmerge v8.3.0 ('Over the Horizon') 64bit
Writing library : libebml v1.3.1 + libmatroska v1.4.2

Video
ID : 1
Format : HEVC
Format/Info : High Efficiency Video Coding
Commercial name : HDR10
Format profile : Main 10@L4@Main
Codec ID : V_MPEGH/ISO/HEVC
Duration : 1 h 37 min
Bit rate : 5 353 kb/s
Width : 1 920 pixels
Height : 1 080 pixels
Display aspect ratio : 16:9
Frame rate mode : Constant
Frame rate : 24.000 FPS
Color space : YUV
Chroma subsampling : 4:2:0 (Type 2)
Bit depth : 10 bits
Bits/(Pixel*Frame) : 0.108
Stream size : 3.63 GiB (80%)
Default : Yes
Forced : No
Color range : Limited
Color primaries : BT.2020
Transfer characteristics : PQ
Matrix coefficients : BT.2020 non-constant
Mastering display color primaries : Display P3
Mastering display luminance : min: 0.0001 cd/m2, max: 1000 cd/m2
Maximum Content Light Level : 1115 cd/m2
Maximum Frame-Average Light Level : 167 cd/m2

Audio #1
ID : 2
Format : E-AC-3
Format/Info : Enhanced AC-3
Commercial name : Dolby Digital Plus
Codec ID : A_EAC3
Duration : 1 h 37 min
Bit rate mode : Constant
Bit rate : 640 kb/s
Channel(s) : 6 channels
Channel layout : L R C LFE Ls Rs
Sampling rate : 48.0 kHz
Frame rate : 31.250 FPS (1536 SPF)
Compression mode : Lossy
Stream size : 448 MiB (10%)
Title : Dub
Language : Russian
Default : Yes
Forced : No

Audio #2
ID : 3
Format : E-AC-3
Format/Info : Enhanced AC-3
Commercial name : Dolby Digital Plus
Codec ID : A_EAC3
Duration : 1 h 37 min
Bit rate mode : Constant
Bit rate : 640 kb/s
Channel(s) : 6 channels
Channel layout : L R C LFE Ls Rs
Sampling rate : 48.0 kHz
Frame rate : 31.250 FPS (1536 SPF)
Compression mode : Lossy
Stream size : 448 MiB (10%)
Language : English
Default : No
Forced : No

Text #1
ID : 4
Format : UTF-8
Codec ID : S_TEXT/UTF8
Codec ID/Info : UTF-8 Plain Text
Duration : 1 h 36 min
Bit rate : 0 b/s
Count of elements : 15
Stream size : 567 Bytes (0%)
Title : Forced
Language : Russian
Default : Yes
Forced : Yes

Text #2
ID : 5
Format : UTF-8
Codec ID : S_TEXT/UTF8
Codec ID/Info : UTF-8 Plain Text
Duration : 1 h 36 min
Bit rate : 118 b/s
Count of elements : 1674
Stream size : 83.9 KiB (0%)
Title : Full
Language : Russian
Default : No
Forced : No

Text #3
ID : 6
Format : UTF-8
Codec ID : S_TEXT/UTF8
Codec ID/Info : UTF-8 Plain Text
Duration : 1 h 28 min
Bit rate : 106 b/s
Count of elements : 2036
Stream size : 69.3 KiB (0%)
Title : English [SDH]
Language : English
Default : No
Forced : No

Text #4
ID : 7
Format : UTF-8
Codec ID : S_TEXT/UTF8
Codec ID/Info : UTF-8 Plain Text
Duration : 1 h 36 min
Bit rate : 74 b/s
Count of elements : 1688
Stream size : 52.6 KiB (0%)
Title : Castilian
Language : Spanish
Default : No
Forced : No

Text #5
ID : 8
Format : UTF-8
Codec ID : S_TEXT/UTF8
Codec ID/Info : UTF-8 Plain Text
Duration : 1 h 36 min
Bit rate : 76 b/s
Count of elements : 1689
Stream size : 54.1 KiB (0%)
Title : Spanish
Language : Spanish
Default : No
Forced : No

Text #6
ID : 9
Format : UTF-8
Codec ID : S_TEXT/UTF8
Codec ID/Info : UTF-8 Plain Text
Duration : 1 h 36 min
Bit rate : 83 b/s
Count of elements : 1711
Stream size : 59.1 KiB (0%)
Title : French
Language : French
Default : No
Forced : No

Text #7
ID : 10
Format : UTF-8
Codec ID : S_TEXT/UTF8
Codec ID/Info : UTF-8 Plain Text
Duration : 1 h 36 min
Bit rate : 78 b/s
Count of elements : 1659
Stream size : 55.4 KiB (0%)
Title : German
Language : German
Default : No
Forced : No

Text #8
ID : 11
Format : UTF-8
Codec ID : S_TEXT/UTF8
Codec ID/Info : UTF-8 Plain Text
Duration : 1 h 36 min
Bit rate : 80 b/s
Count of elements : 1650
Stream size : 56.8 KiB (0%)
Title : Italian
Language : Italian
Default : No
Forced : No

Text #9
ID : 12
Format : UTF-8
Codec ID : S_TEXT/UTF8
Codec ID/Info : UTF-8 Plain Text
Duration : 1 h 36 min
Bit rate : 79 b/s
Count of elements : 1686
Stream size : 56.2 KiB (0%)
Title : Portuguese
Language : Portuguese
Default : No
Forced : No

Text #10
ID : 13
Format : UTF-8
Codec ID : S_TEXT/UTF8
Codec ID/Info : UTF-8 Plain Text
Duration : 1 h 36 min
Bit rate : 76 b/s
Count of elements : 1748
Stream size : 53.9 KiB (0%)
Title : Brazilian Portuguese
Language : Portuguese
Default : No
Forced : No

Text #11
ID : 14
Format : UTF-8
Codec ID : S_TEXT/UTF8
Codec ID/Info : UTF-8 Plain Text
Duration : 1 h 36 min
Bit rate : 73 b/s
Count of elements : 1597
Stream size : 52.1 KiB (0%)
Title : Polish
Language : Polish
Default : No
Forced : No

Text #12
ID : 15
Format : UTF-8
Codec ID : S_TEXT/UTF8
Codec ID/Info : UTF-8 Plain Text
Duration : 1 h 36 min
Bit rate : 81 b/s
Count of elements : 1740
Stream size : 57.7 KiB (0%)
Title : Turkish
Language : Turkish
Default : No
Forced : No

Text #13
ID : 16
Format : UTF-8
Codec ID : S_TEXT/UTF8
Codec ID/Info : UTF-8 Plain Text
Duration : 1 h 36 min
Bit rate : 74 b/s
Count of elements : 1402
Stream size : 52.8 KiB (0%)
Title : Swedish
Language : Swedish
Default : No
Forced : No

Text #14
ID : 17
Format : UTF-8
Codec ID : S_TEXT/UTF8
Codec ID/Info : UTF-8 Plain Text
Duration : 1 h 36 min
Bit rate : 73 b/s
Count of elements : 1685
Stream size : 51.9 KiB (0%)
Title : Danish
Language : Danish
Default : No
Forced : No

Text #15
ID : 18
Format : UTF-8
Codec ID : S_TEXT/UTF8
Codec ID/Info : UTF-8 Plain Text
Duration : 1 h 36 min
Bit rate : 61 b/s
Count of elements : 999
Stream size : 43.7 KiB (0%)
Title : Finnish
Language : Finnish
Default : No
Forced : No

Text #16
ID : 19
Format : UTF-8
Codec ID : S_TEXT/UTF8
Codec ID/Info : UTF-8 Plain Text
Duration : 1 h 36 min
Bit rate : 70 b/s
Count of elements : 1340
Stream size : 49.5 KiB (0%)
Title : Dutch
Language : Dutch
Default : No
Forced : No

Text #17
ID : 20
Format : UTF-8
Codec ID : S_TEXT/UTF8
Codec ID/Info : UTF-8 Plain Text
Duration : 1 h 36 min
Bit rate : 73 b/s
Count of elements : 1450
Stream size : 51.7 KiB (0%)
Title : Norwegian
Language : Norwegian
Default : No
Forced : No

Text #18
ID : 21
Format : UTF-8
Codec ID : S_TEXT/UTF8
Codec ID/Info : UTF-8 Plain Text
Duration : 1 h 36 min
Bit rate : 87 b/s
Count of elements : 1777
Stream size : 61.7 KiB (0%)
Title : Hungarian
Language : Hungarian
Default : No
Forced : No

Text #19
ID : 22
Format : UTF-8
Codec ID : S_TEXT/UTF8
Codec ID/Info : UTF-8 Plain Text
Duration : 1 h 36 min
Bit rate : 130 b/s
Count of elements : 1733
Stream size : 91.8 KiB (0%)
Title : Greek
Language : Greek
Default : No
Forced : No

Text #20
ID : 23
Format : UTF-8
Codec ID : S_TEXT/UTF8
Codec ID/Info : UTF-8 Plain Text
Duration : 1 h 36 min
Bit rate : 126 b/s
Count of elements : 1644
Stream size : 88.9 KiB (0%)
Title : Hebrew
Language : Hebrew
Default : No
Forced : No

Text #21
ID : 24
Format : UTF-8
Codec ID : S_TEXT/UTF8
Codec ID/Info : UTF-8 Plain Text
Duration : 1 h 36 min
Bit rate : 150 b/s
Count of elements : 1784
Stream size : 106 KiB (0%)
Title : Arabic
Language : Arabic
Default : No
Forced : No

Text #22
ID : 25
Format : UTF-8
Codec ID : S_TEXT/UTF8
Codec ID/Info : UTF-8 Plain Text
Duration : 1 h 36 min
Bit rate : 95 b/s
Count of elements : 1708
Stream size : 67.5 KiB (0%)
Title : Romanian
Language : Romanian
Default : No
Forced : No

Text #23
ID : 26
Format : UTF-8
Codec ID : S_TEXT/UTF8
Codec ID/Info : UTF-8 Plain Text
Duration : 1 h 36 min
Bit rate : 75 b/s
Count of elements : 1706
Stream size : 53.2 KiB (0%)
Title : Czech
Language : Czech
Default : No
Forced : No

Text #24
ID : 27
Format : UTF-8
Codec ID : S_TEXT/UTF8
Codec ID/Info : UTF-8 Plain Text
Duration : 1 h 36 min
Bit rate : 238 b/s
Count of elements : 1775
Stream size : 168 KiB (0%)
Title : Hindi
Language : Hindi
Default : No
Forced : No

Text #25
ID : 28
Format : UTF-8
Codec ID : S_TEXT/UTF8
Codec ID/Info : UTF-8 Plain Text
Duration : 1 h 36 min
Bit rate : 77 b/s
Count of elements : 1765
Stream size : 54.4 KiB (0%)
Title : Indonesian
Language : Indonesian
Default : No
Forced : No

Text #26
ID : 29
Format : UTF-8
Codec ID : S_TEXT/UTF8
Codec ID/Info : UTF-8 Plain Text
Duration : 1 h 36 min
Bit rate : 114 b/s
Count of elements : 1776
Stream size : 80.4 KiB (0%)
Title : Vietnamese
Language : Vietnamese
Default : No
Forced : No

Text #27
ID : 30
Format : UTF-8
Codec ID : S_TEXT/UTF8
Codec ID/Info : UTF-8 Plain Text
Duration : 1 h 36 min
Bit rate : 232 b/s
Count of elements : 1779
Stream size : 164 KiB (0%)
Title : Thai
Language : Thai
Default : No
Forced : No

Text #28
ID : 31
Format : UTF-8
Codec ID : S_TEXT/UTF8
Codec ID/Info : UTF-8 Plain Text
Duration : 1 h 36 min
Bit rate : 105 b/s
Count of elements : 1765
Stream size : 74.3 KiB (0%)
Title : Korean
Language : Korean
Default : No
Forced : No

Text #29
ID : 32
Format : UTF-8
Codec ID : S_TEXT/UTF8
Codec ID/Info : UTF-8 Plain Text
Duration : 1 h 36 min
Bit rate : 95 b/s
Count of elements : 1776
Stream size : 67.1 KiB (0%)
Title : Chinese (Simplified)
Language : Chinese
Default : No
Forced : No

Text #30
ID : 33
Format : UTF-8
Codec ID : S_TEXT/UTF8
Codec ID/Info : UTF-8 Plain Text
Duration : 1 h 36 min
Bit rate : 83 b/s
Count of elements : 1774
Stream size : 59.1 KiB (0%)
Title : Chinese (Traditional)
Language : Chinese
Default : No
Forced : No

Text #31
ID : 34
Format : UTF-8
Codec ID : S_TEXT/UTF8
Codec ID/Info : UTF-8 Plain Text
Duration : 1 h 27 min
Bit rate : 90 b/s
Count of elements : 1866
Stream size : 57.5 KiB (0%)
Title : Japanese
Language : Japanese
Default : No
Forced : No
Скриншоты
 

Вложения

  • 12,2 KB Просмотры: 1
    Личеров 0
    Сидеров 0
    Файлов 1
    Объем 4,5 GB

Привет!

Мы группа людей которые решили помочь другим в решении их проблем, а так же пользователям с поиском самых свежих и качественных инфопродуктов. За 4 с небольшим месяца мы создали этот форум на который заходят ежедневно тысячи человек и посещаемость постоянно растёт. Мы создали панель лицензирования для защиты PHP скриптов от воровства и SEO панель для мониторинга наших сайтов и выбора верной стратегии их развития. Мы надеемся что то что мы создали пригодится Вам и возможно Вы поможете нам развиваться и совершенствоваться вместе с Вами.

Статистика форума

Темы
404.526
Сообщения
461.399
Пользователи
80.027
Новый пользователь
post-i-box

Приложения форума для iOS и Android


У ркн там нет власти ;)
Приватные разговоры
Помощь Пользователи
    Вы не присоединились ни к одной комнате.