За последнюю неделю опубликовано 125 новых материалов.
Инструкция новичку Путеводитель по форуму Прокси для Telegram Показать подсказки , это бомба!

Скачать Зачатие: Роди мне ребёнка! / Conception: Ore no Kodomo wo Undekure! [S01] (2018) WEB-DLRip от Deadmauvlad | L | Anilibria бесплатно через торрент

  • Поучаствуй (в качестве покупателя) в любых пяти совместных покупках (кроме завершённых и "Моментальных") и получи группу "Новичок" навсегда -> ссылка на раздел
  • Получай до 480 рублей за каждого приглашенного пользователя!
    представляем Вам очередное расширение партнерской программы, подробности описаны тут -> ссылка
  • 90% материалов доступно к скачиванию после простой регистрации!
    Если же ты хочешь скачивать материалы без требования оставлять отзывы то получи группу "Новичок", 10 способов повышения описаны тут -> ссылка
  • К сожалению количество битых ссылок растет и мы уже не можем их оперативно восстанавливать поэтому просим помощи у каждого нашего пользователя.
    С сегодняшнего дня, за каждую восстановленную ссылку мы заплатим Вам.
    Подробнее тут -> ссылка
  • Перенесем твои заслуги с другого ресурса!
    Мы понимаем как сложно прокачивать аккаунты на форумах, вроде раскачал аккаунт, а тут появляется ресурс в 100 раз круче но тоже с системой прокачки и снова качать аккаунт...
    Предлагаем вам перенести Ваши заслуги на другом подобном ресурсе к нам.
    Подробности описаны тут -> ссылка
  • Вы можете получать по 2.5% с каждой покупки и продажи на маркете! Подробности в теме Партнёрская программа

Torrent_Bot

Торрент-Бот
Бот форума
4 Окт 2016
124
95
20


Английское название: Conception: Ore no Kodomo wo Undekure!
Русское название: Зачатие: Роди мне ребёнка!
Жанр: гарем, романтика, фэнтези
Сезон: 2018 (Осень)
Продолжительность: 12 серий x ~ 00:25:00
Режиссёр: Кэйтаро Мотонага
В главных ролях: Кадзуса Аранами, Кана Асуми, Ая Эндо, Юкиё Фудзии, Саки Фудзита, Дайсукэ Хиракава, Эмири Като, Эри Китамура, Санаэ Кобаяси, Кэнъитиро Мацуда


Описание:
Однажды магический мир Гранбания находился на грани разрушения. В нём буйствовали злобные нечистые кегарэ. Тогда местные жители решили призвать спасителя, коим оказался японский старшеклассник с планеты Земля, Ицуки Юге. Этот серьёзный парень идеально подходит на роль спасителя, ведь он ответственный и справедливый, никогда не оставит кого-то в беде. Только вот его роль в спасении Гранбании состоит не в размахивании мечом и сражений с кегарэ, а в зачатии детей.


По легенде, чтобы найти спасение от кегарэ, двенадцать прекрасных звёздных дев, олицетворяющих 12 созвездий, должны родить по ребёнку, каждый из которых станет мико, звёздным дитя. А отцом для этих деток предстоит стать именно Ицуки. Отныне, в мире полном страданий и разрушений, им придётся исполнять свою ответственную миссию по зачатию и рождению будущих избавителей Гранбании. А зная Ицуки, можно быть уверенными в том, что он к своему заданию подойдёт со всей серьёзностью. Какая же судьба ждёт этот мир, и сумеют ли они сотворить 12 мико?








Страна: Япония
Студия: Gonzo Digimation
Перевод № 1: Любительский Многоголосый закадровый Anilibria (Arato, Ados, Itashi, Amikiri)
Перевод № 2: Русские субтитры + Оригинал

Возрастное ограничение: 18+


Качество: WEB-DLRip [**Исходник WEB-DL 1080p by Golumpa]
Контейнер: AVI
Кодек: XviD
Видео: 720x400 (16:9), 23.976 fps, 1657 Кбит/сек (0.240 bit/pixel)
Аудио №1: AC-3, 48,0 КГц, 2 ch, 192 Кбит/сек, CBR | | Anilibria
Аудио №2: AC-3, 44,1 КГц, 2 ch, 192 Кбит/сек, CBR | | Japan (Оригинал)
Субтитры: Русские (Crunchyroll), Английские (Полный Перевод)


Список Серий
1. Мой ребёнок?!
2. Я хочу от тебя ребёнка
3. Попробуешь завезти от меня ребёнка?
4. Роди мне ребёнка!
5. У меня столько детей
6. Роди мне ребёнка, ням-ням!
7. Будь моей тикувой!
8. Приветствую, моё дитя!
9. Давай попробуем зачать ребёнка!
10. У меня тринадцать детей?!
11. Собираешься ли ты сказать мне, что хочешь от меня ребёнка?
12. Родишь мне ребёнка?


MediaInfo
Общее
Полное имя : Za4aTiE.RoDi.Mne.ReBenKa.2018.S01.WEB-DLRip.Rus.Jap.Deadmauvlad.Ep.02.avi
Формат : AVI
Формат/Информация : Audio Video Interleave
Размер файла : 348 Мбайт
Продолжительность : 23 м. 40 с.
Общий поток : 2055 Кбит/сек
Название фильма : Za4aTiE.RoDi.Mne.ReBenKa.2018.S01.WEB-DLRip.Rus.Jap.Deadmauvlad.Ep.02
Режиссёр : Encoder by Deadmauvlad
Жанр : гарем, романтика, фэнтези
Программа кодирования : VirtualDubMod 1.5.10.3 | www.virtualdub-fr.org || (build 2550/release)
Формат оригинала/Имя : Аниме
Авторское право : Encoder by Deadmauvlad
Примечание : Encoder by Deadmauvlad

Видео
Идентификатор : 0
Формат : MPEG-4 Visual
Профиль формата : Advanced Simple@L5
Настройки формата : BVOP1 / Custom Matrix
Параметр BVOP формата : 1
Параметр QPel формата : Нет
Параметр GMC формата : Без точки перехода
Параметр матрицы формата : Выборочная
Идентификатор кодека : XVID
Идентификатор кодека/Подсказка : XviD
Продолжительность : 23 м. 40 с.
Битрейт : 1657 Кбит/сек
Ширина : 720 пикселей
Высота : 400 пикселей
Соотношение сторон : 16:9
Частота кадров : 23,976 (24000/1001) кадра/сек
Цветовое пространство : YUV
Субдискретизация насыщенности : 4:2:0
Битовая глубина : 8 бит
Тип развёртки : Прогрессивная
Метод сжатия : С потерями
Бит/(Пиксели*Кадры) : 0.240
Размер потока : 280 Мбайт (81%)
Библиотека кодирования : XviD 73

Аудио #1
Идентификатор : 1
Формат : AC-3
Формат/Информация : Audio Coding 3
Коммерческое название : Dolby Digital
Идентификатор кодека : 2000
Продолжительность : 23 м. 40 с.
Вид битрейта : Постоянный
Битрейт : 192 Кбит/сек
Каналы : 2 канала
Channel layout : L R
Частота : 48,0 КГц
Частота кадров : 31,250 кадров/сек (1536 SPF)
Битовая глубина : 16 бит
Метод сжатия : С потерями
Размер потока : 32,5 Мбайт (9%)
Выравнивание : Разделение по промежуткам
Продолжительность промежутка : 42 мс. (1,00 видеокадр)
Время предзагрузки промежутка : 500 мс.


Аудио #2
Идентификатор : 2
Формат : AC-3
Формат/Информация : Audio Coding 3
Коммерческое название : Dolby Digital
Идентификатор кодека : 2000
Продолжительность : 23 м. 40 с.
Вид битрейта : Постоянный
Битрейт : 192 Кбит/сек
Каналы : 2 канала
Channel layout : L R
Частота : 44,1 КГц
Частота кадров : 28,711 кадров/сек (1536 SPF)
Битовая глубина : 16 бит
Метод сжатия : С потерями
Размер потока : 32,5 Мбайт (9%)
Выравнивание : Разделение по промежуткам
Продолжительность промежутка : 42 мс. (1,00 видеокадр)
Время предзагрузки промежутка : 500 мс


Скриншоты

Резервные скриншоты





ЦитатаКто-то писал:

1. В некоторых сериях у русской озвучки есть места без перевода. (Предлагаю подключать русские субтитры)
2. Сведение озвучки под WEB-DL by Deadmauvlad

Релиз / Автор рипа: >Deadmauvlad <

 

Вложения

  • 9,5 KB Просмотры: 0
    Личеров 0
    Сидеров 0
    Файлов 36
    Объем 3,9 GB
Ваш e-mail не будет опубликован. Он потребуется для подтверждения Вашего поста.
Оформление текста Нажмите «Ввод», чтобы отправить ответ.

Привет!

Мы группа людей которые решили помочь другим в решении их проблем, а так же пользователям с поиском самых свежих и качественных инфопродуктов. За 4 с небольшим месяца мы создали этот форум на который заходят ежедневно тысячи человек и посещаемость постоянно растёт. Мы создали панель лицензирования для защиты PHP скриптов от воровства и SEO панель для мониторинга наших сайтов и выбора верной стратегии их развития. Мы надеемся что то что мы создали пригодится Вам и возможно Вы поможете нам развиваться и совершенствоваться вместе с Вами.

Статистика форума

Темы
378.774
Сообщения
418.203
Пользователи
49.967
Новый пользователь
Учименя

Приложения форума для iOS и Android


У ркн там нет власти ;)
Приватные разговоры
Помощь Пользователи
    Вы не присоединились ни к одной комнате.