За последнюю неделю опубликовано 36 новых материалов.
Инструкция новичку Путеводитель по форуму Прокси для Telegram Показать подсказки , это бомба!

Скачать Забавная ферма / Funny Farm (1988) BDRip 720p | D, A бесплатно через торрент

  • Поучаствуй (в качестве покупателя) в любых пяти совместных покупках (кроме завершённых и "Моментальных") и получи группу "Новичок" навсегда -> ссылка на раздел
  • Получай до 480 рублей за каждого приглашенного пользователя!
    представляем Вам очередное расширение партнерской программы, подробности описаны тут -> ссылка
  • 90% материалов доступно к скачиванию после простой регистрации!
    Если же ты хочешь скачивать материалы без требования оставлять отзывы то получи группу "Новичок", 10 способов повышения описаны тут -> ссылка
  • К сожалению количество битых ссылок растет и мы уже не можем их оперативно восстанавливать поэтому просим помощи у каждого нашего пользователя.
    С сегодняшнего дня, за каждую восстановленную ссылку мы заплатим Вам.
    Подробнее тут -> ссылка
  • Перенесем твои заслуги с другого ресурса!
    Мы понимаем как сложно прокачивать аккаунты на форумах, вроде раскачал аккаунт, а тут появляется ресурс в 100 раз круче но тоже с системой прокачки и снова качать аккаунт...
    Предлагаем вам перенести Ваши заслуги на другом подобном ресурсе к нам.
    Подробности описаны тут -> ссылка
  • Вы можете получать по 2.5% с каждой покупки и продажи на маркете! Подробности в теме Партнёрская программа
Если Вы не хотите скачивать, Вы всегда можетепосмотретьонлайн, просто нажмите кнопку ниже :

Открыть плеер

Torrent_Bot

Торрент-Бот
Бот форума
4 Окт 2016
91
163
20



Информация о фильме
Название: Превратности сельской жизни / Забавная ферма / Весёлая ферма
Оригинальное название: Funny Farm
Год выхода: 1988
Жанр: Комедия
Режиссер: Джордж Рой Хилл
В ролях: Чеви Чейз, Мэдолин Смит-Осборн, Кенни О’Моррисон, Джозеф Маэр, Джек Гилпин, Кэрис Корфмен, Уильям Северс, Майк Старр, Гленн Пламмер, Уильям Дюэл и др.

О фильме:
Преуспевающий нью-йоркский спортивный журналист и его жена-учительница решают оставить суету Манхэттена, чтобы жить в тиши сельской местности Вермонта. Их мечта осуществляется с самыми уморительными последствиями, на которые способен комический актер Чейз.


Официальный сайт

Страна: США
Студия: Cornelius Productions, Pan Arts, Warner Bros.
Продолжительность: 01:41:22
Перевод: Авторский (одноголосый закадровый), дублированный

Файл
Кодек: x264
Качество: BDRip 720p
Видео: AVC, 7800 kbps, 1270x720, 23.976 fps, 0.356 bppf
Звук:
(1) Русский Dolby AC3, 48.0 kHz, 2 Ch, 192.0 kbps — Алексей Михалёв [AVO]
(2) Русский Dolby AC3, 48.0 kHz, 2 Ch, 192.0 kbps — Варус-Видео (1995 г.) - Дубляж VHS (VHS) [DUB]
(3) English DTS, 48.0 kHz, 2 Ch, 24 Bits, 1509.0 kbps — Original Stereo
Субтитры: English (Full, SDH)
Главы: Есть, подписанные

MediaInfo
General
Unique ID : 31197161409247724664653154182021339070 (0x17785ACFD5813580016B5A61A1D157BE)
Complete name : Funny Farm [1988] [George Roy Hill] [BDRip-AVC HD].mkv
Format : Matroska
Format version : Version 4
File size : 6.86 GiB
Duration : 1 h 41 min
Overall bit rate : 9 693 kb/s
Movie name : Funny Farm [1988] [George Roy Hill]
Encoded date : UTC 2019-05-27 20:49:33
Writing application : mkvmerge v34.0.0 ('Sight and Seen') 64-bit
Writing library : libebml v1.3.7 + libmatroska v1.5.0
Attachments : Funny Farm [1988] [George Roy Hill].jpg

Video
ID : 1
Format : AVC
Format/Info : Advanced Video Codec
Format profile : [email protected]
Format settings : CABAC / 9 Ref Frames
Format settings, CABAC : Yes
Format settings, ReFrames : 9 frames
Codec ID : V_MPEG4/ISO/AVC
Duration : 1 h 41 min
Bit rate : 7 800 kb/s
Width : 1 270 pixels
Height : 720 pixels
Display aspect ratio : 16:9
Frame rate mode : Constant
Frame rate : 23.976 (24000/1001) FPS
Color space : YUV
Chroma subsampling : 4:2:0
Bit depth : 8 bits
Scan type : Progressive
Bits/(Pixel*Frame) : 0.356
Stream size : 5.52 GiB (80%)
Title : Funny Farm [1988] [George Roy Hill] [BDRip-AVC HD]
Writing library : x264 core 110 r1820+3 c488b3b
Encoding settings : cabac=1 / ref=9 / deblock=1:-2:-2 / analyse=0x3:0x133 / me=tesa / subme=10 / psy=1 / fade_compensate=0.00 / psy_rd=1.05:0.00 / mixed_ref=1 / me_range=32 / chroma_me=1 / trellis=2 / 8x8dct=1 / cqm=0 / deadzone=21,11 / fast_pskip=0 / chroma_qp_offset=-2 / threads=6 / sliced_threads=0 / nr=0 / decimate=0 / interlaced=0 / constrained_intra=0 / fgo=0 / bframes=7 / b_pyramid=2 / b_adapt=2 / b_bias=0 / direct=3 / weightb=1 / open_gop=0 / weightp=2 / keyint=240 / keyint_min=24 / scenecut=40 / intra_refresh=0 / rc=2pass / mbtree=0 / bitrate=7800 / ratetol=1.0 / qcomp=0.80 / qpmin=0 / qpmax=51 / qpstep=4 / cplxblur=20.0 / qblur=0.5 / ip_ratio=1.10 / pb_ratio=1.10 / aq=1:0.70
Language : English
Default : Yes
Forced : No

Audio #1
ID : 2
Format : AC-3
Format/Info : Audio Coding 3
Commercial name : Dolby Digital
Codec ID : A_AC3
Duration : 1 h 41 min
Bit rate mode : Constant
Bit rate : 192 kb/s
Channel(s) : 2 channels
Channel layout : L R
Sampling rate : 48.0 kHz
Frame rate : 31.250 FPS (1536 SPF)
Bit depth : 16 bits
Compression mode : Lossy
Delay relative to video : 9 ms
Stream size : 139 MiB (2%)
Title : Алексей Михалёв [AVO]
Language : Russian
Service kind : Complete Main
Default : Yes
Forced : No

Audio #2
ID : 3
Format : AC-3
Format/Info : Audio Coding 3
Commercial name : Dolby Digital
Codec ID : A_AC3
Duration : 1 h 41 min
Bit rate mode : Constant
Bit rate : 192 kb/s
Channel(s) : 2 channels
Channel layout : L R
Sampling rate : 48.0 kHz
Frame rate : 31.250 FPS (1536 SPF)
Bit depth : 16 bits
Compression mode : Lossy
Delay relative to video : 9 ms
Stream size : 139 MiB (2%)
Title : Варус-Видео (1995 г.) - Дубляж VHS (VHS) [DUB]
Language : Russian
Service kind : Complete Main
Default : No
Forced : No

Audio #3
ID : 4
Format : DTS
Format/Info : Digital Theater Systems
Codec ID : A_DTS
Duration : 1 h 41 min
Bit rate mode : Constant
Bit rate : 1 509 kb/s
Channel(s) : 2 channels
Channel layout : Lt Rt
Sampling rate : 48.0 kHz
Frame rate : 93.750 FPS (512 SPF)
Bit depth : 24 bits
Compression mode : Lossy
Stream size : 1.07 GiB (16%)
Title : Original Stereo
Language : English
Default : No
Forced : No

Text #1
ID : 5
Format : UTF-8
Codec ID : S_TEXT/UTF8
Codec ID/Info : UTF-8 Plain Text
Duration : 1 h 39 min
Bit rate : 53 b/s
Count of elements : 1104
Stream size : 38.5 KiB (0%)
Title : Original - Full
Language : English
Default : No
Forced : No

Text #2
ID : 6
Format : UTF-8
Codec ID : S_TEXT/UTF8
Codec ID/Info : UTF-8 Plain Text
Duration : 1 h 41 min
Bit rate : 54 b/s
Count of elements : 1202
Stream size : 40.6 KiB (0%)
Title : Original - Full SDH
Language : English
Default : No
Forced : No

Menu
00:00:00.000 : en:This Move Is for Keeps
00:02:24.811 : en:Country-Bound Credits
00:05:42.675 : en:Found Home, Lost Movers
00:09:36.867 : en:Minus the Bed; Mail's Here
00:13:00.321 : en:Beware the Bridge
00:16:00.751 : en:Lullaby
00:19:12.985 : en:Sounds Fair
00:21:54.896 : en:Who's In the Garden?
00:26:26.501 : en:That's Who
00:29:49.120 : en:Reeling in a Surprise
00:32:02.545 : en:Knockout Ball
00:35:21.160 : en:Antique Memory Lane
00:38:49.160 : en:The Redbud Fishing Derby
00:40:42.189 : en:Claude's Bill
00:43:38.782 : en:Doggone.
00:47:00.484 : en:Segue Into Fall
00:49:32.636 : en:"Call Me Mr. Lamb Fries"
00:52:18.176 : en:Romantic Reading
00:59:48.710 : en:Literary Success...for the Other Farmer
01:06:40.746 : en:Nighttime Yard Work
01:09:14.150 : en:Commando Andy
01:12:07.906 : en:Gone with the Squirrel
01:18:12.062 : en:The Norman Rockwell Plan
01:22:29.611 : en:Nice Touches for the Culberstons
01:27:14.312 : en:An Old-Fashioned Christmas
01:32:57.446 : en:What Andy Does Best (Silent Night)
01:34:39.507 : en:The Farmers Decide
01:37:28.467 : en:Spirit of the Season
01:38:29.361 : en:Epilogue
01:39:23.958 : en:End Credits
Семпл

Скриншоты
Дополнительная информация
Релиз являет собой пересобранный в mkvtoolnix файл Funny Farm.1988.720p.BDRip.Rus.Eng.HDCLUB.mkv. В заголовке видео было указано авторство за CtrlHD.

Причины пересборки:
1. Дорожка с Алексеем Михалёвым была, цитата, "получена наложением чистого голоса на центр декодированного DTS-HD MA". При просмотре фильме я заметил, что местами конец фраз пропадает. Видимо, что-то пошло не так при сборке DTS. Замена на AC3.

Спасибо Leonard Lew за AC3 дорогу с Михалёвым (Забавная ферма (комедия, приключения 1988 год).avi 1.46 GB 1569837056).

2. Дорога СТС с рассинхроном. Плюс почти все титры обрезаны, что приводит к раннему завершению воспроизведения файла. Выброшено.

3. Добавлен дубляж от Варус-Видео.

Спасибо team_6strun за AC3 дорогу с дубляжом (Funny.Farm.1988.HDRip.DUB-Varus.avi 1.45 GB 1566341120).
 

Вложения

  • 18,1 KB Просмотры: 1
    Личеров 0
    Сидеров 0
    Файлов 1
    Объем 6,9 GB

Привет!

Мы группа людей которые решили помочь другим в решении их проблем, а так же пользователям с поиском самых свежих и качественных инфопродуктов. За 4 с небольшим месяца мы создали этот форум на который заходят ежедневно тысячи человек и посещаемость постоянно растёт. Мы создали панель лицензирования для защиты PHP скриптов от воровства и SEO панель для мониторинга наших сайтов и выбора верной стратегии их развития. Мы надеемся что то что мы создали пригодится Вам и возможно Вы поможете нам развиваться и совершенствоваться вместе с Вами.

Статистика форума

Темы
410.478
Сообщения
469.028
Пользователи
85.715
Новый пользователь
Margorita2202

Приложения форума для iOS и Android


У ркн там нет власти ;)
Приватные разговоры
Помощь Пользователи
    Вы не присоединились ни к одной комнате.