За последнюю неделю опубликовано 57 новых материалов.
Инструкция новичку Путеводитель по форуму Прокси для Telegram Показать подсказки , это бомба!

Скачать За кровь платят кровью / Bound by Honor / Blood In Blood Out (1993) DVDRip-AVC | Director's Cut | A бесплатно через торрент

  • Поучаствуй (в качестве покупателя) в любых пяти совместных покупках (кроме завершённых и "Моментальных") и получи группу "Новичок" навсегда -> ссылка на раздел
  • Получай до 480 рублей за каждого приглашенного пользователя!
    представляем Вам очередное расширение партнерской программы, подробности описаны тут -> ссылка
  • 90% материалов доступно к скачиванию после простой регистрации!
    Если же ты хочешь скачивать материалы без требования оставлять отзывы то получи группу "Новичок", 10 способов повышения описаны тут -> ссылка
  • К сожалению количество битых ссылок растет и мы уже не можем их оперативно восстанавливать поэтому просим помощи у каждого нашего пользователя.
    С сегодняшнего дня, за каждую восстановленную ссылку мы заплатим Вам.
    Подробнее тут -> ссылка
  • Перенесем твои заслуги с другого ресурса!
    Мы понимаем как сложно прокачивать аккаунты на форумах, вроде раскачал аккаунт, а тут появляется ресурс в 100 раз круче но тоже с системой прокачки и снова качать аккаунт...
    Предлагаем вам перенести Ваши заслуги на другом подобном ресурсе к нам.
    Подробности описаны тут -> ссылка
  • Вы можете получать по 2.5% с каждой покупки и продажи на маркете! Подробности в теме Партнёрская программа
Если Вы не хотите скачивать, Вы всегда можетепосмотретьонлайн, просто нажмите кнопку ниже :

Открыть плеер

Torrent_Bot

Торрент-Бот
Бот форума
4 Окт 2016
92
160
20


За кровь платят кровью
Bound by Honor / Blood In Blood Out



Страна: США
Выпущено: Hollywood Pictures, Touchwood Pacific Partners 1, Vato De Atole Productions
Год выпуска: 1993
Жанр:Драма, криминал, боевик
Продолжительность: 03:10:05
Перевод: Авторский одноголосый (Андрей Дольский)

Режиссер: Тейлор Хэкфорд
В ролях: Дэмиан Чапа, Джесси Боррего, Бенджамин Брэтт, Энрике Кастильо, Виктор Риверс, Делрой Линдо, Том Таулз, Карлос Карраско, Тедди Уилсон, Рэймонд Крус, Валенте Родригес, Лэнни Флаэрти, Билли Боб Торнтон, Джеффри Ривас, Кармин Мурсело, Дженни Гэго

Описание: Когда кровь на улицах льется как вода, и нет ничего дешевле, чем жизнь человека, надо уметь говорить на языке насилия. Иначе не выжить. Эту истину в латинском квартале Лос-Анджелеса познают с детства. Связанные узами крови друзья Майкло, Пако и Круз выросли в этом мире поножовщины и гангстерских разборок, но выбрали разные судьбы. Майкло, пройдя тюремную школу, стал крутым бандитом. Круз подавал надежды как художник, однако увяз в наркотическом угаре. А Пако надел форму полицейского. Кажется, пути их разошлись навсегда. Но однажды злые улицы снова сведут героев вместе — и кое-кто из бывших друзей встретятся злейшими врагами.



Кодек: х264
Качество: DVDRip (AVC)
Видео: MPEG-4 AVC, 3000 Кбит/с, [email protected]
Аудио 1: Русский, АС3, 2 ch, 192 Кбит/с Авторский (одноголосый, закадровый) А. Дольский
Аудио 2: Английский, АС3, 2 ch, 192 Кбит/с Оригинал
Субтитры: Нет
Главы: Есть




Инфо файл
x264 [info]: frame I:2193 Avg QP:14.85 size: 65237
x264 [info]: frame P:59435 Avg QP:17.18 size: 30807
x264 [info]: frame B:211812 Avg QP:18.55 size: 10877
Общее
Уникальный идентификатор : 176997739510450988941787053739435184349 (0x85288650325413E897B9CE6E2C4150DD)
Полное имя : H:коллекцияЗа кровь платят кровью 1993г.mkv
Формат : Matroska
Версия формата : Version 2
Размер файла : 4,50 Гбайт
Продолжительность : 3 ч. 10 м.
Общий поток : 3387 Кбит/сек
Дата кодирования : UTC 2020-06-25 08:08:44
Программа кодирования : mkvmerge v5.8.0 ('No Sleep / Pillow') built on Sep 2 2012 15:37:04
Библиотека кодирования : libebml v1.2.3 + libmatroska v1.3.0

Видео
Идентификатор : 1
Формат : AVC
Формат/Информация : Advanced Video Codec
Профиль формата : [email protected]
Настройки формата : CABAC / 14 Ref Frames
Параметр CABAC формата : Да
Параметр RefFrames формата : 14 кадров
Идентификатор кодека : V_MPEG4/ISO/AVC
Продолжительность : 3 ч. 10 м.
Битрейт : 3000 Кбит/сек
Ширина : 712 пикселей
Высота : 410 пикселей
Соотношение сторон : 3:2
Режим частоты кадров : Постоянный
Частота кадров : 23,976 (24000/1001) кадра/сек
Цветовое пространство : YUV
Субдискретизация насыщенности : 4:2:0
Битовая глубина : 8 бит
Тип развёртки : Прогрессивная
Бит/(Пиксели*Кадры) : 0.429
Размер потока : 3,90 Гбайт (87%)
Библиотека кодирования : x264 core 152 r2851kMod ba24899
Настройки программы : cabac=1 / ref=14 / deblock=1:-2:-2 / analyse=0x3:0x113 / me=umh / subme=11 / psy=1 / fade_compensate=0.00 / psy_rd=1.05:0.10 / mixed_ref=1 / me_range=48 / chroma_me=1 / trellis=2 / 8x8dct=1 / cqm=0 / deadzone=21,11 / fast_pskip=0 / chroma_qp_offset=-3 / threads=12 / lookahead_threads=3 / sliced_threads=0 / nr=0 / decimate=0 / interlaced=0 / bluray_compat=0 / constrained_intra=0 / bframes=14 / b_pyramid=2 / b_adapt=2 / b_bias=0 / direct=3 / weightb=1 / open_gop=0 / weightp=2 / keyint=240 / keyint_min=23 / scenecut=40 / intra_refresh=0 / rc_lookahead=40 / rc=2pass / mbtree=0 / bitrate=3000 / ratetol=1.0 / qcomp=0.60 / qpmin=0 / qpmax=39 / qpstep=4 / cplxblur=20.0 / qblur=0.5 / vbv_maxrate=50000 / vbv_bufsize=62500 / nal_hrd=none / filler=0 / ip_ratio=1.25 / pb_ratio=1.30 / aq=1:1.00
Язык : English
Default : Да
Forced : Нет
Цветовой диапазон : Limited
Основные цвета : BT.601 PAL
Характеристики трансфера : BT.470 System B, BT.470 System G
Коэффициенты матрицы : BT.470 System B, BT.470 System G

Аудио #1
Идентификатор : 2
Формат : AC-3
Формат/Информация : Audio Coding 3
Параметр Endianness формата : Big
Идентификатор кодека : A_AC3
Продолжительность : 3 ч. 10 м.
Вид битрейта : Постоянный
Битрейт : 192 Кбит/сек
Каналы : 2 канала
Расположение каналов : Front: L R
Частота : 48,0 КГц
Частота кадров : 31,250 кадров/сек (1536 SPF)
Битовая глубина : 16 бит
Метод сжатия : С потерями
Размер потока : 261 Мбайт (6%)
Заголовок : Авторский одноголосый А. Дольский(поздний)
Язык : Russian
Default : Да
Forced : Нет

Аудио #2
Идентификатор : 3
Формат : AC-3
Формат/Информация : Audio Coding 3
Режим : Dolby Digital
Параметр Endianness формата : Big
Идентификатор кодека : A_AC3
Продолжительность : 3 ч. 10 м.
Вид битрейта : Постоянный
Битрейт : 192 Кбит/сек
Каналы : 2 канала
Расположение каналов : Front: L R
Частота : 48,0 КГц
Частота кадров : 31,250 кадров/сек (1536 SPF)
Битовая глубина : 16 бит
Метод сжатия : С потерями
Размер потока : 261 Мбайт (6%)
Заголовок : Оригинал
Язык : English
Default : Нет
Forced : Нет

Меню
00:00:00.000 : en:Chapter 1
00:08:08.334 : en:Chapter 2
00:11:18.734 : en:Chapter 3
00:17:09.368 : en:Chapter 4
00:25:44.468 : en:Chapter 5
00:28:23.735 : en:Chapter 6
00:33:59.802 : en:Chapter 7
00:39:12.169 : en:Chapter 8
00:45:33.403 : en:Chapter 9
00:51:00.403 : en:Chapter 10
00:57:23.470 : en:Chapter 11
01:02:08.937 : en:Chapter 12
01:08:24.571 : en:Chapter 13
01:13:23.805 : en:Chapter 14
01:20:18.673 : en:Chapter 15
01:24:24.873 : en:Chapter 16
01:30:00.440 : en:Chapter 17
01:35:36.174 : en:Chapter 18
01:41:18.374 : en:Chapter 19
01:47:14.308 : en:Chapter 20
01:52:38.942 : en:Chapter 21
01:58:14.109 : en:Chapter 22
02:03:52.643 : en:Chapter 23
02:09:32.043 : en:Chapter 24
02:15:04.277 : en:Chapter 25
02:20:37.277 : en:Chapter 26
02:27:22.310 : en:Chapter 27
02:31:36.310 : en:Chapter 28
02:37:28.077 : en:Chapter 29
02:43:18.210 : en:Chapter 30
02:48:32.811 : en:Chapter 31
02:56:29.679 : en:Chapter 32
03:00:06.647 : en:Chapter 33
03:05:53.448 : en:Chapter 34
 

Вложения

  • 23,4 KB Просмотры: 0
    Личеров 0
    Сидеров 0
    Файлов 1
    Объем 4,5 GB

Привет!

Мы группа людей которые решили помочь другим в решении их проблем, а так же пользователям с поиском самых свежих и качественных инфопродуктов. За 4 с небольшим месяца мы создали этот форум на который заходят ежедневно тысячи человек и посещаемость постоянно растёт. Мы создали панель лицензирования для защиты PHP скриптов от воровства и SEO панель для мониторинга наших сайтов и выбора верной стратегии их развития. Мы надеемся что то что мы создали пригодится Вам и возможно Вы поможете нам развиваться и совершенствоваться вместе с Вами.

Статистика форума

Темы
406.651
Сообщения
465.096
Пользователи
84.641
Новый пользователь
Вова 1611

Приложения форума для iOS и Android


У ркн там нет власти ;)
Приватные разговоры
Помощь Пользователи
    Вы не присоединились ни к одной комнате.