За последнюю неделю опубликовано 27 новых материалов.
Инструкция новичку Путеводитель по форуму Прокси для Telegram Показать подсказки , это бомба!

Скачать Хвост Скорпиона / La Coda dello scorpione (1971) BDRemux 1080p | L1 бесплатно через торрент

  • Поучаствуй (в качестве покупателя) в любых пяти совместных покупках (кроме завершённых и "Моментальных") и получи группу "Новичок" навсегда -> ссылка на раздел
  • Получай до 480 рублей за каждого приглашенного пользователя!
    представляем Вам очередное расширение партнерской программы, подробности описаны тут -> ссылка
  • 90% материалов доступно к скачиванию после простой регистрации!
    Если же ты хочешь скачивать материалы без требования оставлять отзывы то получи группу "Новичок", 10 способов повышения описаны тут -> ссылка
  • К сожалению количество битых ссылок растет и мы уже не можем их оперативно восстанавливать поэтому просим помощи у каждого нашего пользователя.
    С сегодняшнего дня, за каждую восстановленную ссылку мы заплатим Вам.
    Подробнее тут -> ссылка
  • Перенесем твои заслуги с другого ресурса!
    Мы понимаем как сложно прокачивать аккаунты на форумах, вроде раскачал аккаунт, а тут появляется ресурс в 100 раз круче но тоже с системой прокачки и снова качать аккаунт...
    Предлагаем вам перенести Ваши заслуги на другом подобном ресурсе к нам.
    Подробности описаны тут -> ссылка
  • Вы можете получать по 2.5% с каждой покупки и продажи на маркете! Подробности в теме Партнёрская программа
Если Вы не хотите скачивать, Вы всегда можетепосмотретьонлайн, просто нажмите кнопку ниже :

Открыть плеер

Torrent_Bot

Торрент-Бот
Бот форума
4 Окт 2016
93
156
20
Информация о фильме
Название: Хвост Скорпиона
Оригинальное название: La Coda dello scorpione / The case of the scorpions tail
Год выхода: 1971
Жанр: Триллер, драма, детектив
Режиссер: Серджо Мартино
В ролях: Джордж Хилтон, Анита Стриндберг, Альберто де Мендоса, Ида Галли, Жанин Рейно, Луиджи Пистилли, Том Феллеги, Луис Барбу, Лиза Леонарди, Томас Пико

О фильме:
Богатая вдова в Греции обналичивает миллион долларов страховки, доставшийся ей после гибели мужа в авиакатастрофе. Вокруг этого события вьется несколько человек: любовница погибшего, агент страховой службы, агент интерпола и любопытная журналистка.



Страна: Италия, Испания
Студия: Copercines, Cooperativa Cinematográfica, Devon Film
Продолжительность: 01:35:11
Перевод: Любительский одноголосый (Виталий Арсеньев)

Файл
Кодек: x264
Качество: BDRemux 1080p
Видео: MPEG-4 AVC, 36,4 Мбит/с, 1920x1080, 23.976 кадр/с
Аудио #1: AC3, 2 ch, 192 Кбит/сек | Русский, любительский (одноголосый закадровый) Виталий Арсеньев
Аудио #2: AC3, 1 ch, 384 Кбит/сек | Итальянский, оригинал
Аудио #3: AC3, 1 ch, 384 Кбит/сек | Английский, профессиональный (полное дублирование)
Субтитры: Английские
MI
Общее
Уникальный идентификатор : 184403666843448266234698043274688126298 (0x8ABADAB8D5CBF9E60D12028B7D4ADD5A)
Полное имя : E:The case of the scorpions tail.1971.BDREMUX 1080p.funtden.mkv
Формат : Matroska
Версия формата : Version 4 / Version 2
Размер файла : 25,3 Гбайт
Продолжительность : 1 ч. 35 м.
Режим общего битрейта : Переменный
Общий поток : 38,1 Мбит/сек
Название фильма : The case of the scorpions tail.1971.BDREMUX 1080p.funtden
Дата кодирования : UTC 2018-07-29 18:43:03
Программа кодирования : mkvmerge v22.0.0 ('At The End Of The World') 64-bit
Библиотека кодирования : libebml v1.3.5 + libmatroska v1.4.8
DURATION : 01:35:11.104000000
NUMBER_OF_FRAMES : 178472
NUMBER_OF_BYTES : 274132992
_STATISTICS_WRITING_APP : mkvmerge v22.0.0 ('At The End Of The World') 64-bit
_STATISTICS_WRITING_DATE_UTC : 2018-07-29 18:43:03
_STATISTICS_TAGS : BPS DURATION NUMBER_OF_FRAMES NUMBER_OF_BYTES
Attachment : Yes / Yes / Yes / Yes

Видео
Идентификатор : 1
Формат : AVC
Формат/Информация : Advanced Video Codec
Профиль формата : High@L4.1
Параметр CABAC формата : Да
Параметр ReFrames формата : 3 кадра
Идентификатор кодека : V_MPEG4/ISO/AVC
Продолжительность : 1 ч. 35 м.
Вид битрейта : Переменный
Битрейт : 36,4 Мбит/сек
Максимальный битрейт : 38,0 Мбит/сек
Ширина : 1920 пикселей
Высота : 1080 пикселей
Соотношение сторон : 16:9
Режим частоты кадров : Постоянный
Частота кадров : 23,976 кадра/сек
Цветовое пространство : YUV
Субдискретизация насыщенности : 4:2:0
Битовая глубина : 8 бит
Тип развёртки : Прогрессивная
Бит/(Пиксели*Кадры) : 0.732
Размер потока : 24,2 Гбайт (95%)
Заголовок : The case of the scorpions tail.1971.BDREMUX 1080p.funtden
Язык : English
Default : Нет
Forced : Нет
DURATION : 01:35:11.081000000
NUMBER_OF_FRAMES : 136929
NUMBER_OF_BYTES : 26517994736
_STATISTICS_WRITING_APP : mkvmerge v22.0.0 ('At The End Of The World') 64-bit
_STATISTICS_WRITING_DATE_UTC : 2018-07-29 18:43:03
_STATISTICS_TAGS : BPS DURATION NUMBER_OF_FRAMES NUMBER_OF_BYTES
Основные цвета : BT.709
Характеристики трансфера : BT.709
Коэффициенты матрицы : BT.709

Аудио #1
Идентификатор : 2
Формат : AC-3
Формат/Информация : Audio Coding 3
Расширение режима : CM (complete main)
Параметр Endianness формата : Big
Идентификатор кодека : A_AC3
Продолжительность : 1 ч. 35 м.
Вид битрейта : Постоянный
Битрейт : 192 Кбит/сек
Каналы : 2 канала
Расположение каналов : Front: L R
Частота : 48,0 КГц
Битовая глубина : 16 бит
Метод сжатия : С потерями
Размер потока : 131 Мбайт (1%)
Заголовок : VO | В. Арсеньев
Язык : Russian
Default : Да
Forced : Да

Аудио #2
Идентификатор : 3
Формат : AC-3
Формат/Информация : Audio Coding 3
Расширение режима : CM (complete main)
Параметр Endianness формата : Big
Идентификатор кодека : A_AC3
Продолжительность : 1 ч. 35 м.
Вид битрейта : Постоянный
Битрейт : 384 Кбит/сек
Каналы : 1 канал
Расположение каналов : Front: C
Частота : 48,0 КГц
Битовая глубина : 16 бит
Метод сжатия : С потерями
Размер потока : 261 Мбайт (1%)
Заголовок : Originale
Язык : Italian
Default : Нет
Forced : Нет

Аудио #3
Идентификатор : 4
Формат : AC-3
Формат/Информация : Audio Coding 3
Расширение режима : CM (complete main)
Параметр Endianness формата : Big
Идентификатор кодека : A_AC3
Продолжительность : 1 ч. 35 м.
Вид битрейта : Постоянный
Битрейт : 384 Кбит/сек
Каналы : 1 канал
Расположение каналов : Front: C
Частота : 48,0 КГц
Битовая глубина : 16 бит
Метод сжатия : С потерями
Размер потока : 261 Мбайт (1%)
Заголовок : English (DUB)
Язык : English
Default : Нет
Forced : Нет

Текст #1
Идентификатор : 5
Формат : UTF-8
Идентификатор кодека : S_TEXT/UTF8
Идентификатор кодека/Информация : UTF-8 Plain Text
Язык : English
Default : Нет
Forced : Нет

Текст #2
Идентификатор : 6
Формат : UTF-8
Идентификатор кодека : S_TEXT/UTF8
Идентификатор кодека/Информация : UTF-8 Plain Text
Заголовок : SDH
Язык : English
Default : Нет
Forced : Нет

Меню
00:00:00.000 : en:Chapter 01
00:07:56.934 : en:Chapter 02
00:15:14.538 : en:Chapter 03
00:23:52.305 : en:Chapter 04
00:31:45.445 : en:Chapter 05
00:38:39.275 : en:Chapter 06
00:49:36.098 : en:Chapter 07
00:56:51.533 : en:Chapter 08
01:05:06.360 : en:Chapter 09
01:11:29.493 : en:Chapter 10
01:17:57.005 : en:Chapter 11
01:28:09.575 : en:Chapter 12
Обложка
Скриншоты
 

Вложения

  • 127,7 KB Просмотры: 1
    Личеров 0
    Сидеров 0
    Файлов 1
    Объем 25,3 GB

Привет!

Мы группа людей которые решили помочь другим в решении их проблем, а так же пользователям с поиском самых свежих и качественных инфопродуктов. За 4 с небольшим месяца мы создали этот форум на который заходят ежедневно тысячи человек и посещаемость постоянно растёт. Мы создали панель лицензирования для защиты PHP скриптов от воровства и SEO панель для мониторинга наших сайтов и выбора верной стратегии их развития. Мы надеемся что то что мы создали пригодится Вам и возможно Вы поможете нам развиваться и совершенствоваться вместе с Вами.

Статистика форума

Темы
406.549
Сообщения
464.713
Пользователи
83.419
Новый пользователь
geznavi

Приложения форума для iOS и Android


У ркн там нет власти ;)
Приватные разговоры
Помощь Пользователи
    Вы не присоединились ни к одной комнате.