За последнюю неделю опубликовано 88 новых материалов.
Инструкция новичку Путеводитель по форуму Прокси для Telegram Показать подсказки , это бомба!

Скачать Хрупкость / Frágiles (2005) BDRemux 1080р | P, A бесплатно через торрент

  • Поучаствуй (в качестве покупателя) в любых пяти совместных покупках (кроме завершённых и "Моментальных") и получи группу "Новичок" навсегда -> ссылка на раздел
  • Получай до 480 рублей за каждого приглашенного пользователя!
    представляем Вам очередное расширение партнерской программы, подробности описаны тут -> ссылка
  • 90% материалов доступно к скачиванию после простой регистрации!
    Если же ты хочешь скачивать материалы без требования оставлять отзывы то получи группу "Новичок", 10 способов повышения описаны тут -> ссылка
  • К сожалению количество битых ссылок растет и мы уже не можем их оперативно восстанавливать поэтому просим помощи у каждого нашего пользователя.
    С сегодняшнего дня, за каждую восстановленную ссылку мы заплатим Вам.
    Подробнее тут -> ссылка
  • Перенесем твои заслуги с другого ресурса!
    Мы понимаем как сложно прокачивать аккаунты на форумах, вроде раскачал аккаунт, а тут появляется ресурс в 100 раз круче но тоже с системой прокачки и снова качать аккаунт...
    Предлагаем вам перенести Ваши заслуги на другом подобном ресурсе к нам.
    Подробности описаны тут -> ссылка
  • Вы можете получать по 2.5% с каждой покупки и продажи на маркете! Подробности в теме Партнёрская программа
Если Вы не хотите скачивать, Вы всегда можетепосмотретьонлайн, просто нажмите кнопку ниже :

Открыть плеер

Torrent_Bot

Торрент-Бот
Бот форума
4 Окт 2016
102
152
20



Информация о фильме
Название: Хрупкость
Оригинальное название: Frágiles
Год выхода: 2005
Жанр: ужасы, детектив, триллер
Режиссер: Жауме Балагеро
В ролях: Калиста Флокхарт, Ричард Роксбург, Елена Анайя, Джемма Джонс, Ясмин Мерфи, Колин МакФарлэйн, Майкл Пеннингтон, Дэниэл Ортиз

Описание: Старинная детская больница закрывается, и нечто страшное, полное боли и ненависти, пробуждается к жизни. Мэгги, одна из маленьких пациенток, называет это механической девочкой по имени Шарлотта и уверяет, что она живет наверху, на втором этаже, который заперт и не используется уже 40 лет. После необъяснимого получения переломов лежащим в больнице мальчиком местная медсестра увольняется, и на её место берут новенькую.



Страна: Испания, Великобритания
Продолжительность: 01:41:32
Перевод 1: профессиональный (многоголосый закадровый) НТВ
Перевод 2: авторский (одноголосый закадровый) Евгений Гранкин
Субтитры: английские
Оригинальная аудиодорожка: английский

Файл
Качество: BDRemux 1080р
Видео: MPEG-4 AVC / 26097 kbps / 1920x1080 / 24,000 fps / 16:9 / High Profile 4.1
Аудио 1: AC3 / 2.0 / 48 kHz / 192 kbps / 16 bits |НТВ|
Аудио 2: AC3 / 5.1 / 48 kHz / 384 kbps / 16 bits |Гранкин|
Аудио 3: DTS-HD Master Audio / 5.1 / 48 kHz / 2212 kbps / 16 bits (DTS Core: 5.1 / 48 kHz / 1510 kbps / 16 bits) |original|

Скриншоты
Скрытый текст
General
Unique ID : 210518567467520392671161839023702274110 (0x9E6066BB2C116704BCBBC496B2ADF03E)
Complete name : Хрупкость.2005.Blu-Ray.Remux.(1080p).mkv
Format : Matroska
Format version : Version 2
File size : 20.5 GiB
Duration : 1h 41mn
Overall bit rate mode : Variable
Overall bit rate : 28.9 Mbps
Encoded date : UTC 2012-09-14 07:14:47
Writing application : mkvmerge v5.8.0 ('No Sleep / Pillow') built on Sep 2 2012 15:37:04
Writing library : libebml v1.2.3 + libmatroska v1.3.0

Video
ID : 1
Format : AVC
Format/Info : Advanced Video Codec
Format profile : High@L4.1
Format settings, CABAC : Yes
Format settings, ReFrames : 4 frames
Format settings, GOP : M=3, N=18
Muxing mode : Container profile=Unknown@0.0
Codec ID : V_MPEG4/ISO/AVC
Duration : 1h 41mn
Bit rate mode : Variable
Bit rate : 26.2 Mbps
Maximum bit rate : 38.0 Mbps
Width : 1 920 pixels
Height : 1 080 pixels
Display aspect ratio : 16:9
Frame rate : 24.000 fps
Standard : PAL
Color space : YUV
Chroma subsampling : 4:2:0
Bit depth : 8 bits
Scan type : Progressive
Bits/(Pixel*Frame) : 0.526
Stream size : 18.6 GiB (91%)
Default : No
Forced : No
Color primaries : BT.709-5, BT.1361, IEC 61966-2-4, SMPTE RP177
Transfer characteristics : BT.709-5, BT.1361
Matrix coefficients : BT.709-5, BT.1361, IEC 61966-2-4 709, SMPTE RP177

Audio #1
ID : 2
Format : AC-3
Format/Info : Audio Coding 3
Mode extension : CM (complete main)
Format settings, Endianness : Big
Codec ID : A_AC3
Duration : 1h 41mn
Bit rate mode : Constant
Bit rate : 192 Kbps
Channel(s) : 2 channels
Channel positions : Front: L R
Sampling rate : 48.0 KHz
Bit depth : 16 bits
Compression mode : Lossy
Stream size : 139 MiB (1%)
Title : НТВ
Language : Russian
Default : Yes
Forced : No

Audio #2
ID : 3
Format : AC-3
Format/Info : Audio Coding 3
Mode extension : CM (complete main)
Format settings, Endianness : Big
Codec ID : A_AC3
Duration : 1h 41mn
Bit rate mode : Constant
Bit rate : 384 Kbps
Channel(s) : 6 channels
Channel positions : Front: L C R, Side: L R, LFE
Sampling rate : 48.0 KHz
Bit depth : 16 bits
Compression mode : Lossy
Stream size : 279 MiB (1%)
Title : Гранкин
Language : Russian
Default : No
Forced : No

Audio #3
ID : 4
Format : DTS
Format/Info : Digital Theater Systems
Format profile : MA / Core
Codec ID : A_DTS
Duration : 1h 41mn
Bit rate mode : Variable
Bit rate : 1 561 Kbps / 1 510 Kbps
Channel(s) : 6 channels
Channel positions : Front: L C R, Side: L R, LFE
Sampling rate : 48.0 KHz
Bit depth : 16 bits
Compression mode : Lossless / Lossy
Language : English
Default : No
Forced : No

Text
ID : 5
Format : UTF-8
Codec ID : S_TEXT/UTF8
Codec ID/Info : UTF-8 Plain Text
Language : English
Default : No
Forced : No

Menu
00:00:00.000 : :Chapter 01
00:10:05.000 : :Chapter 02
00:16:04.416 : :Chapter 03
00:21:09.208 : :Chapter 04
00:30:58.000 : :Chapter 05
00:39:02.000 : :Chapter 06
00:48:00.000 : :Chapter 07
00:56:18.000 : :Chapter 08
01:04:05.000 : :Chapter 09
01:10:51.000 : :Chapter 10
01:15:32.500 : :Chapter 11
01:21:49.416 : :Chapter 12
01:26:17.000 : :Chapter 13
01:29:02.000 : :Chapter 14
01:33:20.000 : :Chapter 15
01:36:21.000 : :Chapter 16
01:41:26.666 : :Chapter 17
 

Вложения

  • 52,2 KB Просмотры: 0
    Личеров 0
    Сидеров 0
    Файлов 1
    Объем 20,5 GB

Привет!

Мы группа людей которые решили помочь другим в решении их проблем, а так же пользователям с поиском самых свежих и качественных инфопродуктов. За 4 с небольшим месяца мы создали этот форум на который заходят ежедневно тысячи человек и посещаемость постоянно растёт. Мы создали панель лицензирования для защиты PHP скриптов от воровства и SEO панель для мониторинга наших сайтов и выбора верной стратегии их развития. Мы надеемся что то что мы создали пригодится Вам и возможно Вы поможете нам развиваться и совершенствоваться вместе с Вами.

Статистика форума

Темы
404.586
Сообщения
461.458
Пользователи
80.280
Новый пользователь
egrh

Приложения форума для iOS и Android


У ркн там нет власти ;)
Приватные разговоры
Помощь Пользователи
    Вы не присоединились ни к одной комнате.