За последнюю неделю опубликовано 91 новых материалов.
Инструкция новичку Путеводитель по форуму Прокси для Telegram Показать подсказки , это бомба!

Скачать Хроники Нарнии: Лев, колдунья и волшебный шкаф / The Chronicles of Narnia: The Lion, the Witch and the Wardrobe (2005) WEB-DLRip 720p от SuperMin | D | Open Matte бесплатно через торрент

  • Поучаствуй (в качестве покупателя) в любых пяти совместных покупках (кроме завершённых и "Моментальных") и получи группу "Новичок" навсегда -> ссылка на раздел
  • Получай до 480 рублей за каждого приглашенного пользователя!
    представляем Вам очередное расширение партнерской программы, подробности описаны тут -> ссылка
  • 90% материалов доступно к скачиванию после простой регистрации!
    Если же ты хочешь скачивать материалы без требования оставлять отзывы то получи группу "Новичок", 10 способов повышения описаны тут -> ссылка
  • К сожалению количество битых ссылок растет и мы уже не можем их оперативно восстанавливать поэтому просим помощи у каждого нашего пользователя.
    С сегодняшнего дня, за каждую восстановленную ссылку мы заплатим Вам.
    Подробнее тут -> ссылка
  • Перенесем твои заслуги с другого ресурса!
    Мы понимаем как сложно прокачивать аккаунты на форумах, вроде раскачал аккаунт, а тут появляется ресурс в 100 раз круче но тоже с системой прокачки и снова качать аккаунт...
    Предлагаем вам перенести Ваши заслуги на другом подобном ресурсе к нам.
    Подробности описаны тут -> ссылка
  • Вы можете получать по 2.5% с каждой покупки и продажи на маркете! Подробности в теме Партнёрская программа
Если Вы не хотите скачивать, Вы всегда можетепосмотретьонлайн, просто нажмите кнопку ниже :

Открыть плеер

Torrent_Bot

Торрент-Бот
Бот форума
4 Окт 2016
102
153
20
Информация о фильме
Название: Хроники Нарнии: Лев, колдунья и волшебный шкаф
Оригинальное название: The Chronicles of Narnia: The Lion, the Witch and the Wardrobe
Год выхода: 2005
Жанр:фэнтези, приключения, семейный
Режиссер: Эндрю Адамсон
В ролях: Джорджи Хенли, Скандар Кейнс, Уильям Моусли, Анна Попплуэлл, Тильда Суинтон, Джеймс МакЭвой, Джим Бродбент, Киран Шах, Джеймс Космо, Джуди МакИнтош




Четверых детей родители отправляют из Лондона в деревню, к старому профессору — другу семьи. В его доме дети обнаруживают таинственный платяной шкаф, посредством которого они попадают в сказочную страну Нарнию, где обитают фантастические люди, животные и существа.
Оказывается, что эта мирная страна находится под властью злой Колдуньи, из-за которой там — вечная зима. Дети должны помочь царю Аслану (Великому Льву, который много столетий назад основал Нарнию) победить Колдунью, разрушить заклинания и освободить жителей Нарнии…




Страна: США, Великобритания
Студия: Walden Media, Walt Disney Pictures
Продолжительность: 02:23:07
Перевод: Дубляж

Файл
Кодек: H.264
Качество: WEB-DLRip-720 от SuperMin
Видео: 1280x720 (16:9), 2607 kbps, 23.976 fps
Звук: Русский (AC3, 6 ch, 640 Кбит/с)
Английский (AC-3, 6ch, 640 kbps)
Субтитры: Русские, английские

MI
x264 [info]: frame I:2473 Avg QP:18.06 size:115514
x264 [info]: frame P:53710 Avg QP:19.49 size: 28890
x264 [info]: frame B:149714 Avg QP:22.40 size: 6422
x264 [info]: consecutive B-frames: 4.7% 6.1% 14.8% 21.1% 18.5% 29.5% 4.3% 0.5% 0.6%
x264 [total]: encoded 205897 frames, 4.40 fps, 2607.22 kb/s

General
Unique ID : 214758320118013037734342669957386138371 (0xA190F2ACFE1D3B30A8B2CD25F80AF303)
Complete name : F:Хроники Нарнии. Лев, колдунья и волшебный шкаф (Open Matte).mkv
Format : Matroska
Format version : Version 4 / Version 2
File size : 3.89 GiB
Duration : 2 h 23 min
Overall bit rate : 3 889 kb/s
Movie name : Хроники Нарнии: Лев, колдунья и волшебный шкаф / The Chronicles of Narnia: The Lion, the Witch and the Wardrobe (2005) (Open Matte) - #LORDKILL#
Encoded date : UTC 2018-08-27 10:12:24
Writing application : mkvmerge v9.5.0 ('Quiet Fire') 64bit
Writing library : libebml v1.3.4 + libmatroska v1.4.5

Video
ID : 1
Format : AVC
Format/Info : Advanced Video Codec
Format profile : High@L4.1
Format settings, CABAC : Yes
Format settings, ReFrames : 9 frames
Codec ID : V_MPEG4/ISO/AVC
Duration : 2 h 23 min
Bit rate : 2 607 kb/s
Width : 1 280 pixels
Height : 720 pixels
Display aspect ratio : 16:9
Frame rate mode : Constant
Frame rate : 23.976 (24000/1001) FPS
Color space : YUV
Chroma subsampling : 4:2:0
Bit depth : 8 bits
Scan type : Progressive
Bits/(Pixel*Frame) : 0.118
Stream size : 2.61 GiB (67%)
Writing library : x264 core 146 r2538 121396c
Encoding settings : cabac=1 / ref=9 / deblock=1:-1:-1 / analyse=0x3:0x113 / me=umh / subme=11 / psy=1 / psy_rd=1.00:0.15 / mixed_ref=1 / me_range=32 / chroma_me=1 / trellis=2 / 8x8dct=1 / cqm=0 / deadzone=21,11 / fast_pskip=0 / chroma_qp_offset=-3 / threads=12 / lookahead_threads=2 / sliced_threads=0 / nr=0 / decimate=1 / interlaced=0 / bluray_compat=0 / constrained_intra=0 / bframes=8 / b_pyramid=2 / b_adapt=2 / b_bias=0 / direct=1 / weightb=1 / open_gop=0 / weightp=2 / keyint=240 / keyint_min=23 / scenecut=40 / intra_refresh=0 / rc=crf / mbtree=0 / crf=20.0 / qcomp=0.60 / qpmin=0 / qpmax=69 / qpstep=4 / ip_ratio=1.40 / pb_ratio=1.30 / aq=1:1.00
Language : English
Default : Yes
Forced : No

Audio #1
ID : 2
Format : AC-3
Format/Info : Audio Coding 3
Mode extension : CM (complete main)
Format settings, Endianness : Big
Codec ID : A_AC3
Duration : 2 h 22 min
Bit rate mode : Constant
Bit rate : 640 kb/s
Channel(s) : 6 channels
Channel positions : Front: L C R, Side: L R, LFE
Sampling rate : 48.0 kHz
Frame rate : 31.250 FPS (1536 spf)
Bit depth : 16 bits
Compression mode : Lossy
Stream size : 655 MiB (16%)
Title : Дубляж - Невафильм
Language : Russian
Default : Yes
Forced : No

Audio #2
ID : 3
Format : E-AC-3
Format/Info : Enhanced Audio Coding 3
Format settings, Endianness : Big
Codec ID : A_EAC3
Duration : 2 h 23 min
Bit rate mode : Constant
Bit rate : 640 kb/s
Channel(s) : 6 channels
Channel positions : Front: L C R, Side: L R, LFE
Sampling rate : 48.0 kHz
Frame rate : 187.500 FPS (256 spf)
Compression mode : Lossy
Stream size : 655 MiB (16%)
Title : Original
Language : English
Default : No
Forced : No

Text #1
ID : 4
Format : UTF-8
Codec ID : S_TEXT/UTF8
Codec ID/Info : UTF-8 Plain Text
Duration : 2 h 11 min
Bit rate : 52 b/s
Count of elements : 1071
Stream size : 51.0 KiB (0%)
Title : Full | Blu-Ray
Language : Russian
Default : No
Forced : No

Text #2
ID : 5
Format : UTF-8
Codec ID : S_TEXT/UTF8
Codec ID/Info : UTF-8 Plain Text
Duration : 2 h 11 min
Bit rate : 32 b/s
Count of elements : 1041
Stream size : 31.2 KiB (0%)
Title : Full | Blu-Ray
Language : English
Default : No
Forced : No

Text #3
ID : 6
Format : UTF-8
Codec ID : S_TEXT/UTF8
Codec ID/Info : UTF-8 Plain Text
Duration : 2 h 21 min
Bit rate : 38 b/s
Count of elements : 1451
Stream size : 40.1 KiB (0%)
Title : Original | SDH
Language : English
Default : No
Forced : No

Menu
00:00:00.000 : en:Introduction
00:07:07.636 : en:Mrs. MacReady
00:11:15.049 : en:The Wardrobe
00:18:23.144 : en:Mr. Tumnus' House
00:24:34.223 : en:Just Your Imagination
00:29:45.784 : en:Hail the Queen!
00:34:55.760 : en:peter, Wake Up!
00:39:29.826 : en:The World of Narnia
00:46:50.975 : en:Beavers' Home
00:50:23.354 : en:Behold the Queen's Castle
00:56:43.150 : en:They're After Us!
01:01:15.505 : en:The Queen's Lair
01:12:16.749 : en:Across the Melting River
01:18:57.232 : en:Aslan's Camp
01:24:36.405 : en:Sir Peter
01:31:49.879 : en:The Lion and the Witch
01:37:41.606 : en:Aslan's Sacrifice
01:46:13.617 : en:You Have to Lead Us
01:49:13.881 : en:Battle for Narnia
01:52:39.169 : en:Aslan's Resurrection
01:55:00.727 : en:phoenix
01:59:29.079 : en:peter vs. the Witch
02:05:30.022 : en:The Royal Coronation
02:11:34.053 : en:Credits
Скриншоты
 

Вложения

  • 20,5 KB Просмотры: 1
    Личеров 0
    Сидеров 0
    Файлов 1
    Объем 3,9 GB

Привет!

Мы группа людей которые решили помочь другим в решении их проблем, а так же пользователям с поиском самых свежих и качественных инфопродуктов. За 4 с небольшим месяца мы создали этот форум на который заходят ежедневно тысячи человек и посещаемость постоянно растёт. Мы создали панель лицензирования для защиты PHP скриптов от воровства и SEO панель для мониторинга наших сайтов и выбора верной стратегии их развития. Мы надеемся что то что мы создали пригодится Вам и возможно Вы поможете нам развиваться и совершенствоваться вместе с Вами.

Статистика форума

Темы
404.621
Сообщения
461.575
Пользователи
80.430
Новый пользователь
vsanoshina

Приложения форума для iOS и Android


У ркн там нет власти ;)
Приватные разговоры
Помощь Пользователи
    Вы не присоединились ни к одной комнате.