За последнюю неделю опубликовано 28 новых материалов.
Инструкция новичку Путеводитель по форуму Прокси для Telegram Показать подсказки , это бомба!

Скачать Хоттабыч / }{отт@бь)ч (2006) DVDRip от ivandubskoj бесплатно через торрент

  • Поучаствуй (в качестве покупателя) в любых пяти совместных покупках (кроме завершённых и "Моментальных") и получи группу "Новичок" навсегда -> ссылка на раздел
  • Получай до 480 рублей за каждого приглашенного пользователя!
    представляем Вам очередное расширение партнерской программы, подробности описаны тут -> ссылка
  • 90% материалов доступно к скачиванию после простой регистрации!
    Если же ты хочешь скачивать материалы без требования оставлять отзывы то получи группу "Новичок", 10 способов повышения описаны тут -> ссылка
  • К сожалению количество битых ссылок растет и мы уже не можем их оперативно восстанавливать поэтому просим помощи у каждого нашего пользователя.
    С сегодняшнего дня, за каждую восстановленную ссылку мы заплатим Вам.
    Подробнее тут -> ссылка
  • Перенесем твои заслуги с другого ресурса!
    Мы понимаем как сложно прокачивать аккаунты на форумах, вроде раскачал аккаунт, а тут появляется ресурс в 100 раз круче но тоже с системой прокачки и снова качать аккаунт...
    Предлагаем вам перенести Ваши заслуги на другом подобном ресурсе к нам.
    Подробности описаны тут -> ссылка
  • Вы можете получать по 2.5% с каждой покупки и продажи на маркете! Подробности в теме Партнёрская программа
Если Вы не хотите скачивать, Вы всегда можетепосмотретьонлайн, просто нажмите кнопку ниже :

Открыть плеер

Torrent_Bot

Торрент-Бот
Бот форума
4 Окт 2016
93
160
20
Информация о фильме
Название: Хоттабыч
Оригинальное название: }{отт@бь)ч
Год выхода: 2006
Жанр: Фантастика, фэнтези, комедия, приключения, экранизация
Режиссёр: Пётр Точилин
В ролях: Владимир Толоконников, Марюс Ямпольскис, Лива Круминя, Марк Гейхман, Юлия Паранова, Мила Липнер, Григорий Скряпкин, Иван Губанов, Александр Овчинников (мл.), Юрий Думчев, Константин Спасский, Ростислав Крохин, Самвел Асатрян, Николай Доброхотов, Андрей Дубровский, Полина Ганшина, Константин Кутаров, Светлана Павлова, Олег Поплавский, Михаил Рубцов, Александр Селезнев, Павел Сиротин, Мила Солдаткина, Дмитрий Таланцев, Максим Важов, Елена Волкова, Геннадий Косарев, Антон Эльдаров, Александр Шатохин, Сергей Годин, Евграф Прохоров, Юрий Волошенко

О фильме: Гена - программист по призванию и хакер по жизни. Он хороший парень. Но у него реальные проблемы. Его бросила любимая девушка, его «пасут» бандиты и выслеживают спецслужбы. Спасти его может только чудо, и оно, конечно же, случается. В жизни Гены появляется Хоттабыч, джин, который отмотал несколько тысяч лет заключения в одиночном кувшине.
И теперь готов исполнить три любых желания своего освободителя. Но у самого Хоттабыча тоже проблемы. За ним охотится его давний враг - Шайтаныч. Спасаясь от своих врагов, Гена и Хоттабыч летают на потраченном говорящей молью ковре-самолете над Красной площадью, путешествуют по сетям Мировой Паутины и практикуют магию: превращают людей в вещи, а вещи в людей…



Выпущено: Кинокомпания CTB, Россия
Продолжительность: 01:31:48
Перевод: Не требуется

Файл
Качество: DVDRip [Исходник: DVD-5]
Видео: XviD, 656x336 (1.952), 998 Кбит/с, 25 кадр/с
Аудио: MP3, 48000 Гц, 128 Кбит/с, 2 канала (Стерео)



MediaInfo
General
Complete name : Khottabych.2006.DVDRip.745MB.avi
Format : AVI
Format/Info : Audio Video Interleave
File size : 746 MiB
Duration : 1h 31mn
Overall bit rate : 1 136 Kbps
Movie name : Хоттабыч / }{отт@бь)ч (2006) DVDRip
Genre : Фантастика, фэнтези, комедия, приключения, экранизация
Recorded date : 02.08.2014
Writing application : VirtualDubMod 1.5.10.3 (build 2550/release)
Writing library : VirtualDubMod build 2550/release
Copyright : rip by ivandubskoj

Video
ID : 0
Format : MPEG-4 Visual
Format profile : Advanced [email protected]
Format settings, BVOP : 2
Format settings, QPel : No
Format settings, GMC : No warppoints
Format settings, Matrix : Custom
Codec ID : XVID
Codec ID/Hint : XviD
Duration : 1h 31mn
Bit rate : 998 Kbps
Width : 656 pixels
Height : 336 pixels
Display aspect ratio : 1.952
Frame rate : 25.000 fps
Color space : YUV
Chroma subsampling : 4:2:0
Bit depth : 8 bits
Scan type : Progressive
Compression mode : Lossy
Bits/(Pixel*Frame) : 0.181
Stream size : 656 MiB (88%)
Writing library : XviD 73

Audio
ID : 1
Format : MPEG Audio
Format version : Version 1
Format profile : Layer 3
Codec ID : 55
Codec ID/Hint : MP3
Duration : 1h 31mn
Bit rate mode : Constant
Bit rate : 128 Kbps
Channel(s) : 2 channels
Sampling rate : 48.0 KHz
Compression mode : Lossy
Stream size : 84.1 MiB (11%)
Alignment : Aligned on interleaves
Interleave, duration : 40 ms (1.00 video frame)
Interleave, preload duration : 504 ms
Title : Russian
Writing library : LAME3.99r
Encoding settings : -m s -V 4 -q 0 -lowpass 17 -b 128
Скриншоты


Автор рипа - ivandubskoj
 

Вложения

  • 15,7 KB Просмотры: 0
    Личеров 0
    Сидеров 0
    Файлов 1
    Объем 746 MB

Привет!

Мы группа людей которые решили помочь другим в решении их проблем, а так же пользователям с поиском самых свежих и качественных инфопродуктов. За 4 с небольшим месяца мы создали этот форум на который заходят ежедневно тысячи человек и посещаемость постоянно растёт. Мы создали панель лицензирования для защиты PHP скриптов от воровства и SEO панель для мониторинга наших сайтов и выбора верной стратегии их развития. Мы надеемся что то что мы создали пригодится Вам и возможно Вы поможете нам развиваться и совершенствоваться вместе с Вами.

Статистика форума

Темы
406.612
Сообщения
465.070
Пользователи
84.476
Новый пользователь
ААндрей

Приложения форума для iOS и Android


У ркн там нет власти ;)
Приватные разговоры
Помощь Пользователи
    Вы не присоединились ни к одной комнате.