За последнюю неделю опубликовано 46 новых материалов.
Инструкция новичку Путеводитель по форуму Прокси для Telegram Показать подсказки , это бомба!

Скачать Хороший мальчик (2016) WEB-DLRip от GeneralFilm | iTunes бесплатно через торрент

  • Поучаствуй (в качестве покупателя) в любых пяти совместных покупках (кроме завершённых и "Моментальных") и получи группу "Новичок" навсегда -> ссылка на раздел
  • Получай до 480 рублей за каждого приглашенного пользователя!
    представляем Вам очередное расширение партнерской программы, подробности описаны тут -> ссылка
  • 90% материалов доступно к скачиванию после простой регистрации!
    Если же ты хочешь скачивать материалы без требования оставлять отзывы то получи группу "Новичок", 10 способов повышения описаны тут -> ссылка
  • К сожалению количество битых ссылок растет и мы уже не можем их оперативно восстанавливать поэтому просим помощи у каждого нашего пользователя.
    С сегодняшнего дня, за каждую восстановленную ссылку мы заплатим Вам.
    Подробнее тут -> ссылка
  • Перенесем твои заслуги с другого ресурса!
    Мы понимаем как сложно прокачивать аккаунты на форумах, вроде раскачал аккаунт, а тут появляется ресурс в 100 раз круче но тоже с системой прокачки и снова качать аккаунт...
    Предлагаем вам перенести Ваши заслуги на другом подобном ресурсе к нам.
    Подробности описаны тут -> ссылка
  • Вы можете получать по 2.5% с каждой покупки и продажи на маркете! Подробности в теме Партнёрская программа
Если Вы не хотите скачивать, Вы всегда можетепосмотретьонлайн, просто нажмите кнопку ниже :

Открыть плеер

Torrent_Bot

Торрент-Бот
Бот форума
4 Окт 2016
91
163
20
Информация о фильме
Оригинальное название: Хороший мальчик
Год выпуска: 2016
Жанр:Комедия
Режиссер: Оксана Карас
В ролях: Семен Трескунов, Константин Хабенский, Михаил Ефремов, Александр Паль, Анастасия Богатырева, Василий Буткевич, Иева Андреевайте, Ирина Денисова, Татьяна Догилева, Ирина Пегова

О фильме:
Обычная, казалось бы, неделя из жизни ничем не примечательного школьника Коли Смирнова превращается в череду невероятных происшествий: Коля влюбляется в учительницу английского, кто-то поджигает школьную пристройку с новыми компьютерами, а папа Коли заявляет семье о необходимости отказа от ночного сна, из-за чего никому в доме не удается выспаться и собраться с мыслями. Вдобавок в самого Колю влюбляется дочка директора, старшеклассница Ксюша, решившая, что это именно он поджёг школу. Остаётся всего несколько дней до субботнего праздника школы, где должны встретиться все действующие лица этого водоворота событий, и теперь хорошему мальчику Коле необходимо успеть разобраться со своей личной жизнью, расследовать поджог и наладить взаимоотношения с родителями.



Страна: Россия
Студия: Кинокомпания «2Д Целлулоид»
Продолжительность: 01:35:07
Перевод: Не требуется

Файл
Формат: avi
Качество: WEB-DLRip
Видео: XviD build 73, 688x304 (2.25:1), 24.000 fps, 961 Kbps (0.191 bit/pixel)
Звук: 48.0 kHz, MP3, 2/0 ch, 128 kbps
Субтитры: нет

МедиаИнфо
General
Complete name : Horoshij.Maljchik.2016.745Mb.XviD.WEB-DLRip.GeneralFilm.avi
Format : AVI
Format/Info : Audio Video Interleave
File size : 747 MiB
Duration : 1h 35mn
Overall bit rate : 1 098 Kbps
Writing application : VirtualDubMod 1.5.10.3 | www.virtualdub-fr.org || (build 2550/release)
Writing library : VirtualDubMod build 2550/release

Video
ID : 0
Format : MPEG-4 Visual
Format profile : Advanced [email protected]
Format settings, BVOP : 1
Format settings, QPel : No
Format settings, GMC : No warppoints
Format settings, Matrix : Custom
Codec ID : XVID
Codec ID/Hint : XviD
Duration : 1h 35mn
Bit rate : 961 Kbps
Width : 688 pixels
Height : 304 pixels
Display aspect ratio : 2.25:1
Frame rate : 24.000 fps
Color space : YUV
Chroma subsampling : 4:2:0
Bit depth : 8 bits
Scan type : Progressive
Compression mode : Lossy
Bits/(Pixel*Frame) : 0.191
Stream size : 654 MiB (87%)
Writing library : XviD 73

Audio
ID : 1
Format : MPEG Audio
Format version : Version 1
Format profile : Layer 3
Codec ID : 55
Codec ID/Hint : MP3
Duration : 1h 35mn
Bit rate mode : Constant
Bit rate : 128 Kbps
Channel(s) : 2 channels
Sampling rate : 48.0 KHz
Compression mode : Lossy
Stream size : 87.1 MiB (12%)
Alignment : Aligned on interleaves
Interleave, duration : 42 ms (1.00 video frame)
Interleave, preload duratio : 504 ms
Writing library : LAME3.99r
Encoding settings : -m s -V 4 -q 0 -lowpass 17 -b 128
Семпл Скриншоты
 

Вложения

  • 30,2 KB Просмотры: 0
    Личеров 0
    Сидеров 0
    Файлов 1
    Объем 747,1 MB

Привет!

Мы группа людей которые решили помочь другим в решении их проблем, а так же пользователям с поиском самых свежих и качественных инфопродуктов. За 4 с небольшим месяца мы создали этот форум на который заходят ежедневно тысячи человек и посещаемость постоянно растёт. Мы создали панель лицензирования для защиты PHP скриптов от воровства и SEO панель для мониторинга наших сайтов и выбора верной стратегии их развития. Мы надеемся что то что мы создали пригодится Вам и возможно Вы поможете нам развиваться и совершенствоваться вместе с Вами.

Статистика форума

Темы
410.521
Сообщения
469.056
Пользователи
85.937
Новый пользователь
bvcxz88

Приложения форума для iOS и Android


У ркн там нет власти ;)
Приватные разговоры
Помощь Пользователи
    Вы не присоединились ни к одной комнате.