За последнюю неделю опубликовано 192 новых материалов.
Инструкция новичку Путеводитель по форуму Прокси для Telegram Показать подсказки , это бомба!

Скачать Хороший день (2018) WEB-DLRip от GeneralFilm бесплатно через торрент

  • Поучаствуй (в качестве покупателя) в любых пяти совместных покупках (кроме завершённых и "Моментальных") и получи группу "Новичок" навсегда -> ссылка на раздел
  • Получай до 480 рублей за каждого приглашенного пользователя!
    представляем Вам очередное расширение партнерской программы, подробности описаны тут -> ссылка
  • 90% материалов доступно к скачиванию после простой регистрации!
    Если же ты хочешь скачивать материалы без требования оставлять отзывы то получи группу "Новичок", 10 способов повышения описаны тут -> ссылка
  • К сожалению количество битых ссылок растет и мы уже не можем их оперативно восстанавливать поэтому просим помощи у каждого нашего пользователя.
    С сегодняшнего дня, за каждую восстановленную ссылку мы заплатим Вам.
    Подробнее тут -> ссылка
  • Перенесем твои заслуги с другого ресурса!
    Мы понимаем как сложно прокачивать аккаунты на форумах, вроде раскачал аккаунт, а тут появляется ресурс в 100 раз круче но тоже с системой прокачки и снова качать аккаунт...
    Предлагаем вам перенести Ваши заслуги на другом подобном ресурсе к нам.
    Подробности описаны тут -> ссылка
  • Вы можете получать по 2.5% с каждой покупки и продажи на маркете! Подробности в теме Партнёрская программа
Если Вы не хотите скачивать, Вы всегда можетепосмотретьонлайн, просто нажмите кнопку ниже :

Открыть плеер

Torrent_Bot

Торрент-Бот
Бот форума
4 Окт 2016
125
79
20



Год выпуска: 2018
Жанр: Мелодрама, комедия
Выпущено: Россия, Студия Лира
Режиссер: Сергей Швыдкой
В ролях: Андрей Соколов, Ольга Филимонова, Кирилл Запорожский, Дмитрий Миллер, Степан Бекетов, Тимур Бадалбейли, Алексей Юдников, Маргарита Аброськина, Дарья Токарева, Ирина Демидкина, Роман Рипко

О фильме: Эти истории произошли в одно не самое удачное зимнее утро в курортном городе. Талантливый музыкант-самоучка Егор проваливает важное прослушивание в джазовый коллектив. Писатель Петр пытается покончить жизнь самоубийством, для того чтобы повысить интерес к своей персоне и распродать тираж. К одинокой и строгой девушке Елене неожиданно в квартиру врывается бывший муж, который мечтает стать известным клоуном в цирке. От таксиста Тимура уходит жена и он вынужден «плясать под дудку» маленькой богатой пассажирки. Но может быть, не стоит отчаиваться?



Качество: WEB-DLRip
Видео: XviD build 73, 720x400 (16:9), 25.000 fps, 1957 Kbps (0.272 bit/pixel)
Аудио: 48.0 kHz, AC3, 2 ch, 192 kbps
Продолжительность: 01:30:39
Перевод: Не требуется [Русский]
Cубтитры: нет

Скриншоты
MediaInfo
General
Complete name : D:RazdachiHoroshij.Denj.2018.WEB-DLRip.GeneralFilm.avi
Format : AVI
Format/Info : Audio Video Interleave
File size : 1.37 GiB
Duration : 1 h 30 min
Overall bit rate : 2 159 kb/s
Writing application : VirtualDubMod 1.5.10.3 | www.virtualdub-fr.org || (build 2550/release)
Writing library : VirtualDubMod build 2550/release

Video
ID : 0
Format : MPEG-4 Visual
Format profile : Advanced Simple@L5
Format settings : BVOP1 / Custom Matrix
Format settings, BVOP : 1
Format settings, QPel : No
Format settings, GMC : No warppoints
Format settings, Matrix : Custom
Codec ID : XVID
Codec ID/Hint : XviD
Duration : 1 h 30 min
Bit rate : 1 957 kb/s
Width : 720 pixels
Height : 400 pixels
Display aspect ratio : 16:9
Frame rate : 25.000 FPS
Color space : YUV
Chroma subsampling : 4:2:0
Bit depth : 8 bits
Scan type : Progressive
Compression mode : Lossy
Bits/(Pixel*Frame) : 0.272
Stream size : 1.24 GiB (91%)
Writing library : XviD 73

Audio
ID : 1
Format : AC-3
Format/Info : Audio Coding 3
Commercial name : Dolby Digital
Codec ID : 2000
Duration : 1 h 30 min
Bit rate mode : Constant
Bit rate : 192 kb/s
Channel(s) : 2 channels
Channel layout : L R
Sampling rate : 48.0 kHz
Frame rate : 31.250 FPS (1536 SPF)
Bit depth : 16 bits
Compression mode : Lossy
Stream size : 125 MiB (9%)
Alignment : Split accross interleaves
Interleave, duration : 40 ms (1.00 video frame)
Interleave, preload duratio : 500 ms
Service kind : Complete Main
Релиз от:
 

Вложения

  • 14,6 KB Просмотры: 0
    Личеров 0
    Сидеров 0
    Файлов 1
    Объем 1,4 GB
Ваш e-mail не будет опубликован. Он потребуется для подтверждения Вашего поста.
Оформление текста Нажмите «Ввод», чтобы отправить ответ.

Привет!

Мы группа людей которые решили помочь другим в решении их проблем, а так же пользователям с поиском самых свежих и качественных инфопродуктов. За 4 с небольшим месяца мы создали этот форум на который заходят ежедневно тысячи человек и посещаемость постоянно растёт. Мы создали панель лицензирования для защиты PHP скриптов от воровства и SEO панель для мониторинга наших сайтов и выбора верной стратегии их развития. Мы надеемся что то что мы создали пригодится Вам и возможно Вы поможете нам развиваться и совершенствоваться вместе с Вами.

Статистика форума

Темы
373.574
Сообщения
410.272
Пользователи
43.086
Новый пользователь
jennyl

Приложения форума для iOS и Android


У ркн там нет власти ;)
Гостевая
Помощь Пользователи
  • Никто не разговаривает в данный момент.
  • Н Chat Bot:
    Гость не могу зарегиться присоединился к комнате.
  • Н (Гость) не могу зарегиться:
    при регистрации ошибка
    Цитата
  • Skladomen Chat Bot:
    Skladomen присоединился(лась) к комнате.
  • Н Chat Bot:
    Гость не дает регистрироваться присоединился к комнате.
  • R Chat Bot:
    Гость regresspro присоединился к комнате.
  • R (Гость) regresspro:
    Здравия почему то не удается пройти регистраци
    Цитата
  • mizaider @ mizaider:
    Какая ошибка?
    Цитата
  • C Chat Bot:
    Гость che присоединился к комнате.
  • C (Гость) che:
    Цитата
  • mizaider @ mizaider:
    Подробнее
    Цитата
  • Y Chat Bot:
    Гость yaroslaw присоединился к комнате.
  • Y (Гость) yaroslaw:
    не могу зарегистрироваться уже неделю
    Цитата
  • Y (Гость) yaroslaw:
    не работает ни один из видов регистрации
    Цитата
  • Y (Гость) yaroslaw:
    ни по маил аккаунту
    Цитата
  • Y (Гость) yaroslaw:
    ни по дискорлу
    Цитата
  • Y (Гость) yaroslaw:
    ни по телеграмму
    Цитата
  • mizaider @ mizaider:
    Подробнее, какая ошибка?
    Цитата
    mizaider @ mizaider: Подробнее, какая ошибка?