За последнюю неделю опубликовано 172 новых материалов.
Инструкция новичку Путеводитель по форуму Прокси для Telegram Показать подсказки , это бомба!

Скачать Хорошие мальчики / Good Boys (2019) BDRip-AVC от OlLanDGroup | Лицензия бесплатно через торрент

  • Поучаствуй (в качестве покупателя) в любых пяти совместных покупках (кроме завершённых и "Моментальных") и получи группу "Новичок" навсегда -> ссылка на раздел
  • Получай до 480 рублей за каждого приглашенного пользователя!
    представляем Вам очередное расширение партнерской программы, подробности описаны тут -> ссылка
  • 90% материалов доступно к скачиванию после простой регистрации!
    Если же ты хочешь скачивать материалы без требования оставлять отзывы то получи группу "Новичок", 10 способов повышения описаны тут -> ссылка
  • К сожалению количество битых ссылок растет и мы уже не можем их оперативно восстанавливать поэтому просим помощи у каждого нашего пользователя.
    С сегодняшнего дня, за каждую восстановленную ссылку мы заплатим Вам.
    Подробнее тут -> ссылка
  • Перенесем твои заслуги с другого ресурса!
    Мы понимаем как сложно прокачивать аккаунты на форумах, вроде раскачал аккаунт, а тут появляется ресурс в 100 раз круче но тоже с системой прокачки и снова качать аккаунт...
    Предлагаем вам перенести Ваши заслуги на другом подобном ресурсе к нам.
    Подробности описаны тут -> ссылка
  • Вы можете получать по 2.5% с каждой покупки и продажи на маркете! Подробности в теме Партнёрская программа
Если Вы не хотите скачивать, Вы всегда можетепосмотретьонлайн, просто нажмите кнопку ниже :

Открыть плеер

Torrent_Bot

Торрент-Бот
Бот форума
4 Окт 2016
124
94
20



Информация о фильме
Название: Хорошие мальчики
Оригинальное название: Good Boys
Год выпуска: 2019
Жанр: Комедия, приключения
Режиссер: Джин Ступницки
В ролях: Джейкоб Трамбле, Кит Л. Уильямс, Брэйди Нун, Молли Гордон, Мидори Френсис, Исаак Ванг, Милли Дэвис, Джош Барклай Карас, Уилл Форте, Мариесса Портеланс

О фильме:
История троих друзей-шестиклассников, планирующих посетить крутую вечеринку. Но прежде они должны хорошенько подготовиться, чтобы не ударить в грязь лицом. Так начинается безумное путешествие по долине Сан-Фернандо, в котором надо вернуть наркотики, украсть пиво и починить сломанного дрона - все это нужно сделать, пока родители не вернулись домой.



Страна: США
Студия: Good Universe, Point Grey Pictures, Universal Pictures
Продолжительность: 01:29:37
Перевод: Дублированный | Лицензия DVD R2

Файл
Формат: MKV
Качество: BDRip-AVC
Источник: |Good.Boys.2019.1080p.BluRay.REMUX.AVC.Rus.Ukr.Eng.TeamHD|
Видео: 720x302 (2.40:1), 23.976 fps, x264 ~1089 kbps avg, 0.209 bit/pixel
Звук: 48 kHz, HE-AAC, 2 ch, ~72 kbps avg | RUS
Субтитры: Russian (Captions), Full (DVD R2), English (SDH) MediaInfo:
General
Unique ID : 304427468107358266304301162749424968098 (0xE50699010B83E8437400518C020E21A2)
Complete name : D:OlLanDGroupGood.Boys.2019.BDRip(AVC).OlLanDGroup.mkv
Format : Matroska
Format version : Version 4
File size : 744 MiB
Duration : 1 h 29 min
Overall bit rate : 1 160 kb/s
Movie name : Good.Boys.2019.BDRip(AVC).OlLanDGroup#Skandar#
Encoded date : UTC 2020-01-12 15:09:54
Writing application : mkvmerge v31.0.0 ('Dolores In A Shoestand') 64-bit
Writing library : libebml v1.3.6 + libmatroska v1.4.9

Video
ID : 1
Format : AVC
Format/Info : Advanced Video Codec
Format profile : High@L4.1
Format settings : CABAC / 10 Ref Frames
Format settings, CABAC : Yes
Format settings, ReFrames : 10 frames
Codec ID : V_MPEG4/ISO/AVC
Duration : 1 h 29 min
Bit rate : 1 089 kb/s
Width : 720 pixels
Height : 302 pixels
Display aspect ratio : 2.40:1
Frame rate mode : Constant
Frame rate : 23.976 (24000/1001) FPS
Color space : YUV
Chroma subsampling : 4:2:0
Bit depth : 8 bits
Scan type : Progressive
Bits/(Pixel*Frame) : 0.209
Stream size : 696 MiB (94%)
Title : Good.Boys.2019.BDRip(AVC).OlLanDGroup#Skandar#
Writing library : x264 core 146 r2538 121396c
Encoding settings : cabac=1 / ref=10 / deblock=1:-3:-3 / analyse=0x3:0x133 / me=umh / subme=11 / psy=1 / psy_rd=0.97:0.05 / mixed_ref=1 / me_range=48 / chroma_me=1 / trellis=2 / 8x8dct=1 / cqm=0 / deadzone=21,11 / fast_pskip=0 / chroma_qp_offset=-3 / threads=6 / lookahead_threads=1 / sliced_threads=0 / nr=0 / decimate=0 / interlaced=0 / bluray_compat=0 / constrained_intra=0 / bframes=11 / b_pyramid=2 / b_adapt=2 / b_bias=0 / direct=3 / weightb=1 / open_gop=0 / weightp=2 / keyint=240 / keyint_min=23 / scenecut=40 / intra_refresh=0 / rc_lookahead=40 / rc=2pass / mbtree=0 / bitrate=1089 / ratetol=1.0 / qcomp=0.60 / qpmin=0 / qpmax=69 / qpstep=4 / cplxblur=20.0 / qblur=0.5 / vbv_maxrate=50000 / vbv_bufsize=62500 / nal_hrd=none / filler=0 / ip_ratio=1.40 / pb_ratio=1.30 / aq=1:1.00
Language : English
Default : Yes
Forced : No

Audio
ID : 2
Format : AAC LC SBR
Format/Info : Advanced Audio Codec Low Complexity with Spectral Band Replication
Commercial name : HE-AAC
Format settings : Explicit
Codec ID : A_AAC-2
Duration : 1 h 29 min
Bit rate : 72.0 kb/s
Channel(s) : 2 channels
Channel layout : L R
Sampling rate : 48.0 kHz
Frame rate : 23.438 FPS (2048 SPF)
Compression mode : Lossy
Delay relative to video : 31 ms
Stream size : 46.2 MiB (6%)
Title : Dub | DVD R2
Language : Russian
Default : Yes
Forced : No

Text #1
ID : 3
Format : UTF-8
Codec ID : S_TEXT/UTF8
Codec ID/Info : UTF-8 Plain Text
Duration : 1 h 28 min
Bit rate : 3 b/s
Count of elements : 53
Stream size : 2.17 KiB (0%)
Title : Forced
Language : Russian
Default : Yes
Forced : Yes

Text #2
ID : 4
Format : UTF-8
Codec ID : S_TEXT/UTF8
Codec ID/Info : UTF-8 Plain Text
Duration : 1 h 28 min
Bit rate : 101 b/s
Count of elements : 1454
Stream size : 65.9 KiB (0%)
Title : Full
Language : Russian
Default : No
Forced : No

Text #3
ID : 5
Format : UTF-8
Codec ID : S_TEXT/UTF8
Codec ID/Info : UTF-8 Plain Text
Duration : 1 h 22 min
Bit rate : 82 b/s
Count of elements : 1554
Stream size : 49.3 KiB (0%)
Language : English
Default : No
Forced : No

Menu
00:00:00.000 : en:00:00:00.000
00:03:54.025 : en:00:03:54.025
00:09:00.165 : en:00:09:00.165
00:11:51.169 : en:00:11:51.169
00:15:08.658 : en:00:15:08.658
00:17:29.840 : en:00:17:29.840
00:21:20.696 : en:00:21:20.696
00:27:27.646 : en:00:27:27.646
00:31:25.675 : en:00:31:25.675
00:35:06.104 : en:00:35:06.104
00:40:11.868 : en:00:40:11.868
00:47:16.208 : en:00:47:16.208
00:51:01.183 : en:00:51:01.183
00:57:54.388 : en:00:57:54.388
01:02:27.953 : en:01:02:27.953
01:06:46.544 : en:01:06:46.544
01:09:56.901 : en:01:09:56.901
01:14:19.497 : en:01:14:19.497
01:20:00.796 : en:01:20:00.796
01:23:35.427 : en:01:23:35.427
Скриншоты



Релиз от:
 

Вложения

  • 16,3 KB Просмотры: 0
    Личеров 0
    Сидеров 0
    Файлов 1
    Объем 743,9 MB
Ваш e-mail не будет опубликован. Он потребуется для подтверждения Вашего поста.
Оформление текста Нажмите «Ввод», чтобы отправить ответ.

Привет!

Мы группа людей которые решили помочь другим в решении их проблем, а так же пользователям с поиском самых свежих и качественных инфопродуктов. За 4 с небольшим месяца мы создали этот форум на который заходят ежедневно тысячи человек и посещаемость постоянно растёт. Мы создали панель лицензирования для защиты PHP скриптов от воровства и SEO панель для мониторинга наших сайтов и выбора верной стратегии их развития. Мы надеемся что то что мы создали пригодится Вам и возможно Вы поможете нам развиваться и совершенствоваться вместе с Вами.

Статистика форума

Темы
378.751
Сообщения
418.013
Пользователи
49.662
Новый пользователь
Pleo

Приложения форума для iOS и Android


У ркн там нет власти ;)
Приватные разговоры
Помощь Пользователи
    Вы не присоединились ни к одной комнате.