За последнюю неделю опубликовано 84 новых материалов.
Инструкция новичку Путеводитель по форуму Прокси для Telegram Показать подсказки , это бомба!

Скачать Хочу в тюрьму (1998) DVDRip-AVC от ExKinoRay бесплатно через торрент

  • Поучаствуй (в качестве покупателя) в любых пяти совместных покупках (кроме завершённых и "Моментальных") и получи группу "Новичок" навсегда -> ссылка на раздел
  • Получай до 480 рублей за каждого приглашенного пользователя!
    представляем Вам очередное расширение партнерской программы, подробности описаны тут -> ссылка
  • 90% материалов доступно к скачиванию после простой регистрации!
    Если же ты хочешь скачивать материалы без требования оставлять отзывы то получи группу "Новичок", 10 способов повышения описаны тут -> ссылка
  • К сожалению количество битых ссылок растет и мы уже не можем их оперативно восстанавливать поэтому просим помощи у каждого нашего пользователя.
    С сегодняшнего дня, за каждую восстановленную ссылку мы заплатим Вам.
    Подробнее тут -> ссылка
  • Перенесем твои заслуги с другого ресурса!
    Мы понимаем как сложно прокачивать аккаунты на форумах, вроде раскачал аккаунт, а тут появляется ресурс в 100 раз круче но тоже с системой прокачки и снова качать аккаунт...
    Предлагаем вам перенести Ваши заслуги на другом подобном ресурсе к нам.
    Подробности описаны тут -> ссылка
  • Вы можете получать по 2.5% с каждой покупки и продажи на маркете! Подробности в теме Партнёрская программа
Если Вы не хотите скачивать, Вы всегда можетепосмотретьонлайн, просто нажмите кнопку ниже :

Открыть плеер

Torrent_Bot

Торрент-Бот
Бот форума
4 Окт 2016
104
152
20
Информация о фильме
Название: Хочу в тюрьму
Год выхода: 1988
Жанр: Комедия
Режиссер: Алла Сурикова
В ролях: Владимир Ильин, Наталья Гундарева, Алла Клюка-Шаффер, Сергей Баталов, Борис Щербаков, Кира Сурикова, Олег Бочаров, Наталья Коренченко, Юлия Гусева, Егор Акмен, Игорь Мигунов, Михаил Петровский, Чип Брэй, Юрий Думчев, Максим Бритвенков, Анатолий Горин, Ирина Кравкина, Анвар Либанов, Евгений Гиндилис, Фёдор Смирнов, Александр Кузнецов

О фильме:
Россия всегда была богата талантливыми людьми. В большинстве своем они всегда отличались редкостным простодушием. Вот и Семен Лямкин, разработчик и конструктор технического чуда в виде канареечного `Запорожца`, легко обгоняющего `Мерседесы` и плавающего не хуже `моторки`, попал в неприятную историю. Когда с его помощью один предприимчивый `работодатель` ограбил банк, Семен не стал дожидаться ареста, а, сев в `Запорожец`, отправился в тюрьму. Но не российскую, а... голландскую, поскольку, по слухам, за бугром кутузки намного комфортабельнее. Куча дорожных приключений, бесконечные попытки организовать свой арест в сказочной Голландии, возвращение на Родину - все это невероятно смешно и трогательно переплелось в фильме Аллы Суриковой.

Страна: Россия, НТВ-Профит
Продолжительность: 01:33:58
Перевод: не требуется

Файл
Кодек: x264
Качество: DVDRip-AVC
Видео: MPEG-4 AVC, 2992 Кбит/с, 706x572@754x572
Звук: AC3, 6 ch, 384 Кбит/с


Скриншоты
Медиа-Инфо
raw [info]: 706x572p 16:15 @ 25/1 fps (cfr)
x264 [info]: using SAR=16/15
x264 [info]: using cpu capabilities: MMX2 SSE2Fast SSSE3 SSE4.2 AVX
x264 [info]: profile High, level 4.1
x264 [info]: frame I:870 Avg QP:17.09 size: 68222
x264 [info]: frame P:31567 Avg QP:20.14 size: 28994
x264 [info]: frame B:108529 Avg QP:21.93 size: 10452
========================================================================================================
Общее
Уникальный идентификатор : 189068507942966470977449025192807101776 (0x8E3D452531DDFBE0B86E84212CDBF550)
Полное имя : D:Хочу в тюрьму_1998-DVDRip-AVC.mkv
Формат : Matroska
Версия формата : Version 2
Размер файла : 2,22 Гбайт
Продолжительность : 1 ч. 33 м.
Общий поток : 3378 Кбит/сек
Дата кодирования : UTC 2016-01-03 16:41:03
Программа кодирования : mkvmerge v5.8.0 ('No Sleep / Pillow') built on Sep 2 2012 15:37:04
Библиотека кодирования : libebml v1.2.3 + libmatroska v1.3.0

Видео
Идентификатор : 1
Формат : AVC
Формат/Информация : Advanced Video Codec
Профиль формата : High@L4.1
Параметр CABAC формата : Да
Параметр ReFrames формата : 16 кадров
Идентификатор кодека : V_MPEG4/ISO/AVC
Продолжительность : 1 ч. 33 м.
Битрейт : 2992 Кбит/сек
Ширина : 706 пикселей
Высота : 572 пикселя
Соотношение сторон : 4:3
Соотношение сторон в оригинале : 4:3
Режим частоты кадров : Постоянный
Частота кадров : 25,000 кадров/сек
Цветовое пространство : YUV
Субдискретизация насыщенности : 4:2:0
Битовая глубина : 8 бит
Тип развёртки : Прогрессивная
Бит/(Пиксели*Кадры) : 0.296
Размер потока : 1,92 Гбайт (87%)
Библиотека кодирования : x264 core 148 r2638 7599210
Настройки программы : cabac=1 / ref=16 / deblock=1:-2:-2 / analyse=0x3:0x133 / me=umh / subme=10 / psy=1 / psy_rd=1.05:0.15 / mixed_ref=1 / me_range=32 / chroma_me=1 / trellis=2 / 8x8dct=1 / cqm=0 / deadzone=21,11 / fast_pskip=0 / chroma_qp_offset=-3 / threads=12 / lookahead_threads=3 / sliced_threads=0 / nr=0 / decimate=0 / interlaced=0 / bluray_compat=0 / constrained_intra=0 / bframes=16 / b_pyramid=2 / b_adapt=2 / b_bias=0 / direct=3 / weightb=1 / open_gop=0 / weightp=2 / keyint=250 / keyint_min=25 / scenecut=40 / intra_refresh=0 / rc=2pass / mbtree=0 / bitrate=2992 / ratetol=1.0 / qcomp=0.63 / qpmin=0 / qpmax=39 / qpstep=4 / cplxblur=20.0 / qblur=0.5 / ip_ratio=1.40 / pb_ratio=1.30 / aq=1:1.00
Язык : English
Default : Да
Forced : Нет
Цветовой диапазон : Limited
Основные цвета : BT.601 PAL
Характеристики трансфера : BT.470 System B, BT.470 System G
Коэффициенты матрицы : BT.601

Аудио
Идентификатор : 2
Формат : AC-3
Формат/Информация : Audio Coding 3
Расширение режима : CM (complete main)
Параметр Endianness формата : Big
Идентификатор кодека : A_AC3
Продолжительность : 1 ч. 33 м.
Вид битрейта : Постоянный
Битрейт : 384 Кбит/сек
Каналы : 6 каналов
Расположение каналов : Front: L C R, Side: L R, LFE
Частота : 48,0 КГц
Метод сжатия : С потерями
Размер потока : 258 Мбайт (11%)
Язык : Russian
Default : Да
Forced : Нет
Релиз от:
Автор релиза:
 

Вложения

  • 12 KB Просмотры: 1
    Личеров 0
    Сидеров 0
    Файлов 1
    Объем 2,2 GB

Привет!

Мы группа людей которые решили помочь другим в решении их проблем, а так же пользователям с поиском самых свежих и качественных инфопродуктов. За 4 с небольшим месяца мы создали этот форум на который заходят ежедневно тысячи человек и посещаемость постоянно растёт. Мы создали панель лицензирования для защиты PHP скриптов от воровства и SEO панель для мониторинга наших сайтов и выбора верной стратегии их развития. Мы надеемся что то что мы создали пригодится Вам и возможно Вы поможете нам развиваться и совершенствоваться вместе с Вами.

Статистика форума

Темы
404.550
Сообщения
461.466
Пользователи
80.111
Новый пользователь
dapohui

Приложения форума для iOS и Android


У ркн там нет власти ;)
Приватные разговоры
Помощь Пользователи
    Вы не присоединились ни к одной комнате.