За последнюю неделю опубликовано 103 новых материалов.
Инструкция новичку Путеводитель по форуму Прокси для Telegram Показать подсказки , это бомба!

Скачать Хоббит: Пустошь Смауга / The Hobbit: The Desolation of Smaug (2013) Hybrid 1080p | D | Extended Edition | Open Matte бесплатно через торрент

  • Поучаствуй (в качестве покупателя) в любых пяти совместных покупках (кроме завершённых и "Моментальных") и получи группу "Новичок" навсегда -> ссылка на раздел
  • Получай до 480 рублей за каждого приглашенного пользователя!
    представляем Вам очередное расширение партнерской программы, подробности описаны тут -> ссылка
  • 90% материалов доступно к скачиванию после простой регистрации!
    Если же ты хочешь скачивать материалы без требования оставлять отзывы то получи группу "Новичок", 10 способов повышения описаны тут -> ссылка
  • К сожалению количество битых ссылок растет и мы уже не можем их оперативно восстанавливать поэтому просим помощи у каждого нашего пользователя.
    С сегодняшнего дня, за каждую восстановленную ссылку мы заплатим Вам.
    Подробнее тут -> ссылка
  • Перенесем твои заслуги с другого ресурса!
    Мы понимаем как сложно прокачивать аккаунты на форумах, вроде раскачал аккаунт, а тут появляется ресурс в 100 раз круче но тоже с системой прокачки и снова качать аккаунт...
    Предлагаем вам перенести Ваши заслуги на другом подобном ресурсе к нам.
    Подробности описаны тут -> ссылка
  • Вы можете получать по 2.5% с каждой покупки и продажи на маркете! Подробности в теме Партнёрская программа
Если Вы не хотите скачивать, Вы всегда можетепосмотретьонлайн, просто нажмите кнопку ниже :

Открыть плеер

Torrent_Bot

Торрент-Бот
Бот форума
4 Окт 2016
124
96
20

Информация о фильме
Название: Хоббит: Пустошь Смауга
Оригинальное название: The Hobbit: The Desolation of Smaug
Год выхода: 2013
Жанр: фэнтези, приключения
Режиссер: Питер Джексон / Peter Jackson
В ролях: Мартин Фриман, Ричард Армитедж, Иэн МакКеллен, Эванджелин Лилли, Орландо Блум, Люк Эванс, Бенедикт Камбербэтч, Ли Пейс, Кен Стотт, Эйдан Тернер...

О фильме:
Продолжение путешествия хоббита Бильбо Бэггинса, волшебника Гэндальфа и 13 отважных гномов. Их компания обязана завершить своё путешествие к Одинокой горе. Там они должны встретиться с величайшей опасностью из всех — созданием куда более ужасающим, чем все их прошлые противники, которое проверит на прочность не только их мужество, но крепость их дружбы и правильность выбранного пути, — драконом Смаугом.




Страна: США, Новая Зеландия
Студия: Metro-Goldwyn-Mayer (MGM), New Line Cinema, WingNut Films
Продолжительность: 03:06:35
Перевод: дублированный

Файл
Кодек: H264
Качество: Hybrid 1080p
Видео: 10.4 Мбит/сек / 1920x1080 / 23,976 fps / High Profile 4.1
Звук:
Аудио 1: Russian AC3 / 5.1 / 48 kHz / 448 kbps / | Дубляж |
Аудио 2: English AC3 / 5.1 / 48 kHz / 448 kbps / | Original |
Субтитры: русские (forced, BD CEE), английские (full, SDH, SDH Colored)

Семпл

MI
Общее
Уникальный идентификатор : 316238274265285997567891159590431296997 (0xEDE946B4D6CFA3AC25D4F7CDB2730DE5)
Полное имя : F:ВидеоThe Hobbit. Desolation of Smaug. 2013 (Extended Edition) Hybrid Open Matte 1080p.mkv
Формат : Matroska
Версия формата : Version 4
Размер файла : 14,8 Гбайт
Продолжительность : 3 ч. 6 м.
Общий поток : 11,3 Мбит/сек
Дата кодирования : UTC 2019-11-20 07:23:31
Программа кодирования : mkvmerge v30.1.0 ('Forever And More') 64-bit
Библиотека кодирования : libebml v1.3.6 + libmatroska v1.4.9
Обложка : Yes
Attachments : cover.jpg / cover.jpg / cover.jpg

Видео
Идентификатор : 1
Формат : AVC
Формат/Информация : Advanced Video Codec
Профиль формата : High@L4.1
Настройки формата : CABAC / 4 Ref Frames
Параметр CABAC формата : Да
Параметр RefFrames формата : 4 кадра
Идентификатор кодека : V_MPEG4/ISO/AVC
Продолжительность : 3 ч. 6 м.
Битрейт : 10,4 Мбит/сек
Ширина : 1920 пикселей
Высота : 1080 пикселей
Соотношение сторон : 16:9
Режим частоты кадров : Постоянный
Частота кадров : 23,976 (24000/1001) кадра/сек
Цветовое пространство : YUV
Субдискретизация насыщенности : 4:2:0
Битовая глубина : 8 бит
Тип развёртки : Прогрессивная
Бит/(Пиксели*Кадры) : 0.210
Размер потока : 13,6 Гбайт (92%)
Библиотека кодирования : x264 core 157 r2935 545de2f
Настройки программы : cabac=1 / ref=4 / deblock=1:-3:-3 / analyse=0x3:0x133 / me=umh / subme=10 / psy=1 / psy_rd=1.00:0.00 / mixed_ref=1 / me_range=32 / chroma_me=1 / trellis=2 / 8x8dct=1 / cqm=0 / deadzone=21,11 / fast_pskip=0 / chroma_qp_offset=-2 / threads=6 / lookahead_threads=1 / sliced_threads=0 / nr=0 / decimate=1 / interlaced=0 / bluray_compat=0 / constrained_intra=0 / bframes=8 / b_pyramid=2 / b_adapt=2 / b_bias=0 / direct=3 / weightb=1 / open_gop=0 / weightp=2 / keyint=240 / keyint_min=23 / scenecut=40 / intra_refresh=0 / rc_lookahead=60 / rc=crf / mbtree=1 / crf=16.0 / qcomp=0.60 / qpmin=0 / qpmax=69 / qpstep=4 / vbv_maxrate=62500 / vbv_bufsize=78125 / crf_max=0.0 / nal_hrd=none / filler=0 / ip_ratio=1.40 / aq=1:1.00
Default : Да
Forced : Нет

Аудио #1
Идентификатор : 2
Формат : AC-3
Формат/Информация : Audio Coding 3
Коммерческое название : Dolby Digital
Идентификатор кодека : A_AC3
Продолжительность : 3 ч. 6 м.
Вид битрейта : Постоянный
Битрейт : 448 Кбит/сек
Каналы : 6 каналов
ChannelLayout : L R C LFE Ls Rs
Частота : 48,0 КГц
Частота кадров : 31,250 кадров/сек (1536 SPF)
Метод сжатия : С потерями
Размер потока : 598 Мбайт (4%)
Заголовок : DUB
Язык : Russian
ServiceKind/String : Complete Main
Default : Да
Forced : Нет

Аудио #2
Идентификатор : 3
Формат : AC-3
Формат/Информация : Audio Coding 3
Коммерческое название : Dolby Digital
Идентификатор кодека : A_AC3
Продолжительность : 3 ч. 6 м.
Вид битрейта : Постоянный
Битрейт : 448 Кбит/сек
Каналы : 6 каналов
ChannelLayout : L R C LFE Ls Rs
Частота : 48,0 КГц
Частота кадров : 31,250 кадров/сек (1536 SPF)
Метод сжатия : С потерями
Размер потока : 598 Мбайт (4%)
Язык : English
ServiceKind/String : Complete Main
Default : Нет
Forced : Нет

Текст #1
Идентификатор : 4
Формат : ASS
Идентификатор кодека : S_TEXT/ASS
Идентификатор кодека/Информация : Advanced Sub Station Alpha
Продолжительность : 3 ч. 4 м.
Битрейт : 3 бит/сек
ElementCount : 96
Метод сжатия : Без потерь
Размер потока : 4,92 Кбайт (0%)
Заголовок : Forced style
Язык : Russian
Default : Да
Forced : Нет

Текст #2
Идентификатор : 5
Формат : UTF-8
Идентификатор кодека : S_TEXT/UTF8
Идентификатор кодека/Информация : UTF-8 Plain Text
Продолжительность : 3 ч. 4 м.
Битрейт : 2 бит/сек
ElementCount : 96
Размер потока : 2,93 Кбайт (0%)
Заголовок : Forced
Язык : Russian
Default : Нет
Forced : Нет

Текст #3
Идентификатор : 6
Формат : ASS
Идентификатор кодека : S_TEXT/ASS
Идентификатор кодека/Информация : Advanced Sub Station Alpha
Продолжительность : 3 ч. 5 м.
Битрейт : 85 бит/сек
ElementCount : 2121
Метод сжатия : Без потерь
Размер потока : 115 Кбайт (0%)
Заголовок : Full style
Язык : Russian
Default : Нет
Forced : Нет

Текст #4
Идентификатор : 7
Формат : UTF-8
Идентификатор кодека : S_TEXT/UTF8
Идентификатор кодека/Информация : UTF-8 Plain Text
Продолжительность : 3 ч. 5 м.
Битрейт : 49 бит/сек
ElementCount : 2121
Размер потока : 67,5 Кбайт (0%)
Заголовок : Full
Язык : Russian
Default : Нет
Forced : Нет

Текст #5
Идентификатор : 8
Формат : UTF-8
Идентификатор кодека : S_TEXT/UTF8
Идентификатор кодека/Информация : UTF-8 Plain Text
Продолжительность : 2 ч. 54 м.
Битрейт : 38 бит/сек
ElementCount : 2035
Размер потока : 48,7 Кбайт (0%)
Заголовок : Full
Язык : English
Default : Нет
Forced : Нет

Текст #6
Идентификатор : 9
Формат : UTF-8
Идентификатор кодека : S_TEXT/UTF8
Идентификатор кодека/Информация : UTF-8 Plain Text
Продолжительность : 3 ч. 5 м.
Битрейт : 40 бит/сек
ElementCount : 2282
Размер потока : 54,4 Кбайт (0%)
Заголовок : SDH
Язык : English
Default : Нет
Forced : Нет

Текст #7
Идентификатор : 10
Формат : UTF-8
Идентификатор кодека : S_TEXT/UTF8
Идентификатор кодека/Информация : UTF-8 Plain Text
Продолжительность : 3 ч. 5 м.
Битрейт : 51 бит/сек
ElementCount : 2282
Размер потока : 70,3 Кбайт (0%)
Заголовок : SDH-Colored
Язык : English
Default : Нет
Forced : Нет

Меню
00:00:00.000 : :The Quest for Erebor
00:07:33.411 : :Wilderland
00:12:00.302 : :The Master Summons
00:12:59.445 : :A Commander of Legions
00:15:55.370 : :Queer Lodgings
00:20:56.922 : :Last of the Skin-Changers
00:23:15.434 : :Where the Shadow Lie
00:25:52.675 : :The Elven-Gate
00:29:59.255 : :Mirkwood
00:38:14.041 : :Flies and Spiders
00:46:43.842 : :The Woodland Realm
00:49:46.315 : :The Elvenking
00:53:19.528 : :King and captain
00:55:10.222 : :Feast of Starlight
00:58:07.858 : :Barrels Out of Bond
01:08:42.326 : :The High Fells
01:12:22.337 : :Bard the Bowman
01:15:45.707 : :The Nature of Evil
01:19:10.162 : :Smuggled Cargo
01:22:46.836 : :Lake-Town
01:25:09.686 : :The Master of Lake-Town
01:28:07.738 : :The World of Men
01:31:15.552 : :The Home of Bard
01:36:02.756 : :"It is Our Fight"
01:37:35.890 : :The Prophecy
01:40:35.404 : :A Warm Welcome
01:45:16.518 : :The Parting of the Company
01:48:44.475 : :The Lonely Mountain
01:50:31.750 : :A Spell of Concealment
01:52:36.541 : :The Hidden Door
01:53:08.448 : :Son of Thror
01:59:16.356 : :On the Doorstep
02:07:11.832 : :Kingsfoil
02:07:39.109 : :The Courage of Hobbits
02:09:22.671 : :The Enemy Revealed
02:12:48.585 : :Inside Information
02:22:00.843 : :The Black Arrow
02:22:43.429 : :In the Dragon's Lair
02:23:17.922 : :Under Arrest
02:24:56.396 : :Bilbo the Burglar
02:26:45.085 : :Smaug the Magnificent
02:29:18.824 : :Orc Attack
02:33:12.975 : :Confrontations
02:34:57.620 : :Elvish Medicine
02:36:13.155 : :Hunter and Hunted
02:37:45.956 : :"She Walks in Starlight"
02:39:08.829 : :A Desperate Plan
02:41:39.940 : :Duel in Lake-Town
02:44:06.002 : :The Forges Relit
02:51:16.683 : :Smaug the Golden
02:56:05.555 : :Credits
Доп. инфо
Экспериментальный релиз, только для поклонников фильма и open matte.
Гибрид получен путем автоматического совмещения широкоэкранного (2.35:1) Blu-ray и HDTV (16:9) плагином [URL="https://github.com/introspected/AutoOverlay" target="_blank">AutoOverlay с целью получить версию фильма с максимальным наполнением кадра. Высота кадра по всему фильму плавающая (в зависимости от наполнения). Недостающая картинка по углам замылена. Для скрытия логотипа канала на HDTV использовалась WEB-DL ivi. ОМ-сцены суммарно составляют 1 ч 5 мин. Остальное (2 ч 1 мин) - копия с Blu-ray.
Скриншоты
 

Вложения

  • 74,9 KB Просмотры: 0
    Личеров 0
    Сидеров 0
    Файлов 1
    Объем 14,8 GB
Ваш e-mail не будет опубликован. Он потребуется для подтверждения Вашего поста.
Оформление текста Нажмите «Ввод», чтобы отправить ответ.

Привет!

Мы группа людей которые решили помочь другим в решении их проблем, а так же пользователям с поиском самых свежих и качественных инфопродуктов. За 4 с небольшим месяца мы создали этот форум на который заходят ежедневно тысячи человек и посещаемость постоянно растёт. Мы создали панель лицензирования для защиты PHP скриптов от воровства и SEO панель для мониторинга наших сайтов и выбора верной стратегии их развития. Мы надеемся что то что мы создали пригодится Вам и возможно Вы поможете нам развиваться и совершенствоваться вместе с Вами.

Статистика форума

Темы
378.796
Сообщения
418.335
Пользователи
50.359
Новый пользователь
d3rv1sh

Приложения форума для iOS и Android


У ркн там нет власти ;)
Приватные разговоры
Помощь Пользователи
    Вы не присоединились ни к одной комнате.